xXx.Return.of.Xander.Cage.2017.720p.10bit.BluRay.x265.HEVC-MZABI[PRiME]

DOWNLOAD TORRENT DOWNLOAD DOWNLOAD ANONYMOUS

Posted on May 7, 2017 in Movies » Misc , verified torrent

Size: 842.65 MB , Seeds: 462 , Peers: 156 ( Updated July 10, 2017 - Refresh )

* Download via Magnet Link , * To download files you need a Bittorrent Client , * How to download torrents from Bit Torrent Scene?

Scrape History ( seeds + peers )

Internal Files

xXx.Return.of.Xander.Cage.2017.720p.10bit.BluRay.x265.HEVC-MZABI[PRiME]
Please Support!! Read More!!!.txt   334 Byte
Torrent Downloaded From 1337x.to.txt   69 Byte
Torrent Downloaded From ExtraTorrent.cc.txt   446 Byte
xXx.Return.of.Xander.Cage.2017.720p.10bit.BluRay.x265.HEVC-MZABI[PRiME].mkv   842.49 MB

Hash Code

3813d5e7ae73f66af97d0a147628fb80cc1b0370

Description


xXx.Return.of.Xander.Cage.2017.720p.10bit.BluRay.x265.HEVC-MZABI[PRiME]

ImDb: http://www.imdb.com/title/tt1293847

SCREENSHOT

Complete name : xXx.Return.of.Xander.Cage.2017.720p.10bit.BluRay.x265.HEVC-MZABI[PRiME].mkv
Format : Matroska
Format version : Version 4 / Version 2
File size : 842 MiB
Duration : 1 h 46 min
Overall bit rate : 1 103 kb/s
Encoded date : UTC 2017-05-07 02:31:31
Writing application : mkvmerge v9.6.0 ('Slave To Your Mind') 64bit
Writing library : libebml v1.3.4 + libmatroska v1.4.5

Video
ID : 1
Format : HEVC
Format/Info : High Efficiency Video Coding
Format profile : Main [email protected]/* */@Main
Codec ID : V_MPEGH/ISO/HEVC
Duration : 1 h 46 min
Bit rate : 1 001 kb/s
Width : 1 280 pixels
Height : 528 pixels
Display aspect ratio : 2.40:1
Frame rate mode : Constant
Frame rate : 23.976 (24000/1001) FPS
Color space : YUV
Chroma subsampling : 4:2:0
Bit depth : 10 bits
Bits/(Pixel*Frame) : 0.062
Stream size : 765 MiB (91%)
Title : HEVC x265 10bit Video / 1000 kbps / 720p / 23.976 fps / Main 10 Profile 4.1
Writing library : x265 2.4+6-fd01abfc7898:[Windows][GCC 7.1.0][64 bit] 10bit
Encoding settings : cpuid=1049087 / frame-threads=3 / numa-pools=10 / wpp / no-pmode / no-pme / no-psnr / no-ssim / log-level=2 / input-csp=1 / input-res=1280x528 / interlace=0 / total-frames=153597 / level-idc=41 / high-tier=1 / uhd-bd=0 / ref=3 / no-allow-non-conformance / no-repeat-headers / annexb / no-aud / no-hrd / info / hash=0 / no-temporal-layers / open-gop / min-keyint=23 / keyint=250 / bframes=4 / b-adapt=2 / b-pyramid / bframe-bias=0 / rc-lookahead=20 / lookahead-slices=0 / scenecut=40 / no-intra-refresh / ctu=64 / min-cu-size=8 / no-rect / no-amp / max-tu-size=32 / tu-inter-depth=1 / tu-intra-depth=1 / limit-tu=0 / rdoq-level=0 / dynamic-rd=0.00 / no-ssim-rd / signhide / no-tskip / nr-intra=0 / nr-inter=0 / no-constrained-intra / strong-intra-smoothing / max-merge=2 / limit-refs=3 / no-limit-modes / me=1 / subme=2 / merange=57 / temporal-mvp / weightp / no-weightb / no-analyze-src-pics / deblock=0:0 / sao / no-sao-non-deblock / rd=3 / no-early-skip / rskip / no-fast-intra / no-tskip-fast / no-cu-lossless / no-b-intra / rdpenalty=0 / psy-rd=2.00 / psy-rdoq=0.00 / no-rd-refine / analysis-mode=0 / no-lossless / cbqpoffs=0 / crqpoffs=0 / rc=abr / bitrate=1001 / qcomp=0.60 / qpstep=4 / stats-write=0 / stats-read=2 / cplxblur=20.0 / qblur=0.5 / ipratio=1.40 / pbratio=1.30 / aq-mode=1 / aq-strength=1.00 / cutree / zone-count=0 / no-strict-cbr / qg-size=32 / no-rc-grain / qpmax=69 / qpmin=0 / sar=0 / overscan=0 / videoformat=5 / range=0 / colorprim=2 / transfer=2 / colormatrix=2 / chromaloc=0 / display-window=0 / max-cll=0,0 / min-luma=0 / max-luma=1023 / log2-max-poc-lsb=8 / vui-timing-info / vui-hrd-info / slices=1 / opt-qp-pps / opt-ref-list-length-pps / no-multi-pass-opt-rps / scenecut-bias=0.05 / no-opt-cu-delta-qp / no-aq-motion / no-hdr / no-hdr-opt / no-dhdr10-opt / refine-level=5 / no-limit-sao
Default : Yes
Forced : No

Audio
ID : 2
Format : AAC
Format/Info : Advanced Audio Codec
Format profile : HE-AAC / LC
Codec ID : A_AAC
Duration : 1 h 46 min
Bit rate : 80.0 kb/s
Channel(s) : 2 channels
Channel positions : Front: L R
Sampling rate : 48.0 kHz / 24.0 kHz
Frame rate : 23.438 FPS (1024 spf)
Compression mode : Lossy
Delay relative to video : 40 ms
Stream size : 61.1 MiB (7%)
Title : HE-AAC / 2.0 / 48 kHz / 82 kbps
Language : English
Default : No
Forced : No

Text #1
ID : 3
Format : PGS
Muxing mode : zlib
Codec ID : S_HDMV/PGS
Codec ID/Info : Picture based subtitle format used on BDs/HD-DVDs
Duration : 45 min 40 s
Bit rate : 135 b/s
Count of elements : 28
Stream size : 45.2 KiB (0%)
Language : English
Default : No
Forced : No

Text #2
ID : 4
Format : PGS
Muxing mode : zlib
Codec ID : S_HDMV/PGS
Codec ID/Info : Picture based subtitle format used on BDs/HD-DVDs
Duration : 1 h 36 min
Bit rate : 9 615 b/s
Count of elements : 2259
Stream size : 6.62 MiB (1%)
Language : English
Default : No
Forced : No

Text #3
ID : 5
Format : PGS
Muxing mode : zlib
Codec ID : S_HDMV/PGS
Codec ID/Info : Picture based subtitle format used on BDs/HD-DVDs
Duration : 1 h 38 min
Bit rate : 11.6 kb/s
Count of elements : 2791
Stream size : 8.22 MiB (1%)
Language : English
Default : No
Forced : No

Text #4
ID : 6
Format : UTF-8
Codec ID : S_TEXT/UTF8
Codec ID/Info : UTF-8 Plain Text
Duration : 1 h 39 min
Bit rate : 114 b/s
Count of elements : 1099
Stream size : 83.5 KiB (0%)
Language : Arabic
Default : No
Forced : No

Menu
00:00:00.000 : en:Chapter 1
00:07:09.137 : en:Chapter 2
00:12:00.511 : en:Chapter 3
00:22:38.107 : en:Chapter 4
00:27:56.258 : en:Chapter 5
00:38:27.764 : en:Chapter 6
00:46:59.650 : en:Chapter 7
00:52:45.621 : en:Chapter 8
01:02:10.060 : en:Chapter 9
01:11:50.181 : en:Chapter 10
01:18:35.252 : en:Chapter 11
01:28:42.734 : en:Chapter 12
01:37:57.163 : en:Chapter 13

SCREENSHOT

Click Image To View Full Size

SCREENSHOT
Click To View Screenshot
Click To View Screenshot
Click To View Screenshot

Torrent location

https://www.1337x.to/torrent/2199927/xXx-Return-of-Xander-Cage-2017-720p-10bit-BluRay-x265-HEVC-MZABI-PRiME/

Trackers

Refresh Leechers : Updated July 10, 2017

1. http://explodie.org:6969/announce

2. http://tracker.tfile.me/announce

3. http://bigfoot1942.sektori.org:6969/announce

4. udp://eddie4.nl:6969/announce

5. udp://tracker4.piratux.com:6969/announce

6. udp://tracker.trackerfix.com:80/announce

7. udp://tracker.pomf.se:80/announce

8. udp://torrent.gresille.org:80/announce

9. udp://9.rarbg.me:2710/announce

10. udp://tracker.leechers-paradise.org:6969/announce

11. udp://glotorrents.pw:6969/announce

12. udp://tracker.opentrackr.org:1337/announce

13. udp://tracker.blackunicorn.xyz:6969/announce

14. udp://tracker.internetwarriors.net:1337/announce

15. udp://p4p.arenabg.ch:1337/announce

16. udp://tracker.coppersurfer.tk:6969/announce

17. udp://9.rarbg.to:2710/announce

18. udp://tracker.openbittorrent.com:80/announce

19. udp://glotorrents.pw:6969/announce

20. udp://eddie4.nl:6969/announce

21. udp://explodie.org:6969/announce

22. udp://9.rarbg.me:2710/announce

23. udp://9.rarbg.to:2710/announce

24. udp://9.rarbg.com:2710/announce

25. udp://p4p.arenabg.com:1337/announce

26. udp://p4p.arenabg.ch:1337/announce

27. udp://ipv4.tracker.harry.lu:80/announce

28. udp://tracker.zer0day.to:1337/announce

29. udp://tracker.opentrackr.org:1337/announce

30. udp://tracker.leechers-paradise.org:6969/announce

31. udp://tracker.coppersurfer.tk:6969/announce

32. udp://tracker.ilibr.org:80/announce

33. udp://tracker.ilibr.org:6969/announce

Comments

You must log in to add a comment.

Embed Code

Sharing Widget

Related torrents

FILENAME SIZE SEEDS PEERS ADDED UPD
[i] xXx.Return.Of.Xander.Cage.2017.HC.HDRip.XViD.AC3-ETRG 1.4 GB 1304 279 4 months 1 month
[i]
[i]
xXx Return of Xander Cage 2017 HC 720p HDRip 750 MB - iExTV
Movies - Misc , Quality: Audio 9/10 - Video 9/10
751.3 MB 406 43 4 months 1 month
[i] xXx Return of Xander Cage - 2017 - pDVDRip - 1CD - x264 - Makintos13.mkv 698.57 MB 184 9 6 months 2 weeks
[i] xXx.Return.Of.Xander.Cage.2017.720p.KORSUB.HDRip.850MB.MkvCage.mkv 861.3 MB 139 6 4 months 1 month
[i] xXx Return of Xander Cage 2017 HDCAM XviD-CAT 1.46 GB 97 16 6 months 1 week
[i] xXx- Return of Xander Cage (2017) [3D] [YTS AG] 1.63 GB 79 33 1 month 3 weeks
[i] xXx Return of Xander Cage 2017 HC 1080p HDRip 1.5 GB - iExTV 1.5 GB 76 20 4 months 1 month
[i] xXx.Return.of.Xander.Cage.2017.480p.BRRip.XViD.AC3-ETRG 1.41 GB 76 20 2 months 2 weeks
[i] xXx: Return of Xander Cage - xXx Il Ritorno di Xander Cage (2017).H264.Italian.English.Ac3.5.1.sub.ita.eng.iCV-MIRCrew
posted by robbyrs3 in Movies - Action
1.53 GB 75 11 2 months 2 weeks
[i] xXx Return of Xander Cage (2017) 720p HC HDRip x264 [Dual-Audio][Hindi (Cam Cleaned) - English] - Downloadhub
posted by downloadhub in Movies - Action
1.03 GB 67 24 4 months 1 month

Top Movies ( auto generated report )

FILENAME SIZE SEEDS PEERS ADDED UPD
[i] Going in Style (2017) [720p] [YTS AG] 713.31 MB 7007 4678 19 hours 17 hours
[i] Going in Style (2017) [1080p] [YTS AG] 1.47 GB 5830 4033 19 hours 17 hours
[i] Colossal (2016) [720p] [YTS AG] 797.03 MB 2620 1311 1 day 20 hours
[i] Colossal (2016) [1080p] [YTS AG] 1.66 GB 2497 1293 1 day 20 hours
[i] S W A T - Under Siege (2017) [720p] [YTS AG] 665.25 MB 2397 1487 19 hours 17 hours
[i] Sleight (2016) [720p] [YTS AG] 658.87 MB 1861 1053 1 day 20 hours
[i] S W A T - Under Siege (2017) [1080p] [YTS AG] 1.36 GB 1736 965 19 hours 17 hours
[i] Sleight (2016) [1080p] [YTS AG] 1.36 GB 1417 561 1 day 20 hours
[i] The Hippopotamus (2017) [720p] [YTS AG] 655.89 MB 1387 721 19 hours 17 hours
[i] The Hippopotamus (2017) [1080p] [YTS AG] 1.36 GB 1239 644 19 hours 17 hours