Voice.from.the.Stone.2017.BRRip.XviD.AC3-EVO[PRiME]

DOWNLOAD TORRENT DOWNLOAD DOWNLOAD ANONYMOUS

Posted on May 19, 2017 in Movies » Misc , verified torrent

Size: 1.39 GB , Seeds: 9 , Peers: 5 ( Updated May 20, 2017 - Refresh )

* Download via Magnet Link , * To download files you need a Bittorrent Client , * How to download torrents from Bit Torrent Scene?

Loading...

Scrape History ( seeds + peers )

Internal Files

Voice.from.the.Stone.2017.BRRip.XviD.AC3-EVO[PRiME]
Please Support!! Read More!!!.txt   334 Byte
sample[PRiME].avi   82.42 MB
Voice.from.the.Stone.2017.BRRip.XviD.AC3-EVO[PRiME].avi   1.31 GB

Hash Code

f7113c0fdc8eeec3dd1d1f99f68d56423f345422

Description


Voice.from.the.Stone.2017.BRRip.XviD.AC3-EVO[PRiME]

ImDb: http://www.imdb.com/title/tt1544608

SCREENSHOT

Complete name : Voice.from.the.Stone.2017.BRRip.XviD.AC3-EVO[PRiME].avi
Format : AVI
Format/Info : Audio Video Interleave
File size : 1.31 GiB
Duration : 1 h 30 min
Overall bit rate : 2 077 kb/s
Writing library : VirtualDub build 32593/release

Video
ID : 0
Format : MPEG-4 Visual
Format profile : Advanced [email protected]/* */
Format settings, BVOP : 2
Format settings, QPel : No
Format settings, GMC : No warppoints
Format settings, Matrix : Default (H.263)
Muxing mode : Packed bitstream
Codec ID : XVID
Codec ID/Hint : XviD
Duration : 1 h 30 min
Bit rate : 1 619 kb/s
Width : 720 pixels
Height : 304 pixels
Display aspect ratio : 2.35:1
Frame rate : 23.976 (23976/1000) FPS
Color space : YUV
Chroma subsampling : 4:2:0
Bit depth : 8 bits
Scan type : Progressive
Compression mode : Lossy
Bits/(Pixel*Frame) : 0.309
Stream size : 1.02 GiB (78%)
Writing library : XviD 66

Audio
ID : 1
Format : AC-3
Format/Info : Audio Coding 3
Mode extension : CM (complete main)
Format settings, Endianness : Big
Codec ID : 2000
Duration : 1 h 30 min
Bit rate mode : Constant
Bit rate : 448 kb/s
Channel(s) : 6 channels
Channel positions : Front: L C R, Side: L R, LFE
Sampling rate : 48.0 kHz
Frame rate : 31.250 FPS (1536 spf)
Compression mode : Lossy
Stream size : 289 MiB (22%)
Alignment : Aligned on interleaves
Interleave, duration : 42 ms (1.00 video frame)
Interleave, preload duration : 512 ms

SCREENSHOT

Click Image To View Full Size

SCREENSHOT
Click To View Screenshot
Click To View Screenshot
Click To View Screenshot

Torrent location

https://www.1337x.to/torrent/2219363/Voice-from-the-Stone-2017-BRRip-XviD-AC3-EVO-PRiME/

Trackers

Refresh Leechers : Updated May 20, 2017

1. http://explodie.org:6969/announce

2. http://tracker.tfile.me/announce

3. http://bigfoot1942.sektori.org:6969/announce

4. http://tracker2.wasabii.com.tw:6969/announce

5. http://tracker.mg64.net:6881/announce

6. http://bt.artvid.ru:6969/announce

7. http://tracker1.wasabii.com.tw:6969/announce

8. http://open.acgtracker.com:1096/announce

9. http://tracker.opentrackr.org/announce

10. http://mvgroup.org:2710/announce

11. udp://mgtracker.org:6969/announce

12. udp://asnet.pw:2710/announce

13. udp://tracker.mgtracker.org:2710/announce

14. udp://tracker4.piratux.com:6969/announce

15. udp://tracker.trackerfix.com:80/announce

16. udp://tracker.pomf.se:80/announce

17. udp://torrent.gresille.org:80/announce

18. udp://p4p.arenabg.com:1337

19. udp://ipv4.tracker.harry.lu:80/announce

20. udp://inferno.demonoid.ooo:3389/announce

21. udp://tracker.blackunicorn.xyz:6969/announce

22. udp://tracker.internetwarriors.net:1337/announce

23. udp://tracker.openbittorrent.com:80/announce

24. udp://eddie4.nl:6969/announce

25. udp://tracker.leechers-paradise.org:6969/announce

26. udp://tracker.opentrackr.org:1337/announce

27. udp://tracker.zer0day.to:1337/announce

28. udp://p4p.arenabg.ch:1337/announce

29. udp://tracker.coppersurfer.tk:6969/announce

30. udp://9.rarbg.to:2710/announce

31. udp://9.rarbg.com:2710/announce

32. udp://9.rarbg.me:2710/announce

33. udp://open.demonii.com:1337

34. udp://glotorrents.pw:6969/announce

35. udp://eddie4.nl:6969/announce

36. udp://explodie.org:6969/announce

37. udp://9.rarbg.me:2710/announce

38. udp://9.rarbg.to:2710/announce

39. udp://9.rarbg.com:2710/announce

40. udp://p4p.arenabg.com:1337/announce

41. udp://p4p.arenabg.ch:1337/announce

42. udp://ipv4.tracker.harry.lu:80/announce

43. udp://tracker.zer0day.to:1337/announce

44. udp://tracker.opentrackr.org:1337/announce

45. udp://tracker.leechers-paradise.org:6969/announce

46. udp://tracker.coppersurfer.tk:6969/announce

47. udp://tracker.ilibr.org:80/announce

48. udp://tracker.ilibr.org:6969/announce

Comments

You must log in to add a comment.

Embed Code

Sharing Widget

Related torrents

FILENAME SIZE SEEDS PEERS ADDED UPD
[i] Voice.from.the.Stone.2017.BDRip.x264-ROVERS[PRiME] 321.15 MB 2 3 5 days 4 days
[i] Voice.from.the.Stone.2017.BRRip.XviD.AC3-iFT[PRiME] 1.51 GB 1 6 2 days 2 days

Top Movies ( auto generated report )

FILENAME SIZE SEEDS PEERS ADDED UPD
[i] Logan (2017) [1080p] [YTS AG] 2.09 GB 13878 7730 2 days 10 hours
[i] Beauty and the Beast (2017) [1080p] [YTS AG] 1.96 GB 12256 5690 5 days 9 hours
[i] Logan (2017) [720p] [YTS AG] 1014.33 MB 11389 7827 2 days 8 hours
[i] Beauty and the Beast (2017) [720p] [YTS AG] 947.05 MB 9223 4734 5 days 8 hours
[i] John Wick Chapter 2 (2017) 720p WEB-DL 950MB - MkvCage.torrent 953.3 MB 5497 2500 1 day 5 hours
[i] Free.Fire.2016.1080p.WEB-DL.DD5.1.H264-FGT 3.11 GB 3018 1703 1 day 20 hours
[i] John.Wick.Chapter.2.2017.WEB-DL.x264-FGT 1.05 GB 3153 1563 1 day 7 hours
[i] John Wick Chapter 2 2017 HDRip XVid Line-NoGrp 1.3 GB 2856 1272 1 day 20 hours
[i] Beauty.And.The.Beast.2017.1080p.HDRip.X264.AC3-EVO[EtHD] 3.63 GB 2210 349 1 week 8 hours
[i] John.Wick.Chapter.2.2017.720p.WEB-DL.XviD.AC3-FGT 3.58 GB 2571 2678 1 day 7 hours