Timeshift S15E06 How Britain Won the Space Race - The Story of Bernard Lovell and Jodrell Bank (720p HD soft Eng subs)

DOWNLOAD TORRENT DOWNLOAD DOWNLOAD ANONYMOUS

Posted on May 19, 2017 in Series » Misc

Size: 1012.15 MB , Seeds: 0 , Peers: 0 ( Updated August 26, 2017 - Refresh )

Could not find any peer statistics from any torrent tracker.
This does not mean the torrent is dead.

* Download via Magnet Link , * To download files you need a Bittorrent Client , * How to download torrents from Bit Torrent Scene?

Scrape History ( seeds + peers )

Internal Files

Timeshift S15E06 How Britain Won the Space Race - The Story of Bernard Lovell and Jodrell Bank
Timeshift S15E06 How Britain Won the Space Race The Story of Bernard Lovell and Jodrell Bank.mp4   1010.73 MB
Timeshift S15E06 How Britain Won the Space Race The Story of Bernard Lovell and Jodrell Bank.jpg   946.75 KB
About this torrent.txt   1.88 KB
Timeshift S15E06 How Britain Won the Space Race The Story of Bernard Lovell and Jodrell Bank.srt   119.69 KB
Torrent Downloaded From 1337x.to.txt   0 Byte
Torrent Downloaded From Katcr.co - Kickasstorrents.txt   72 Byte

Hash Code

b940184f253b5817eac4af70c5241e0691c3c4dc

Description

Timeshift S15E06 How Britain Won the Space Race - The Story of Bernard Lovell and Jodrell Bank (720p HD soft Eng subs)


The unlikely story of how one man with some ex-WWII army equipment eventually turned a muddy field in Cheshire into a key site in the space race. That man was Bernard Lovell, and his telescope at Jodrell Bank would be used at the height of the Cold War by both the Americans and the Russians to track their competing spacecraft. It also put Britain at the forefront of radio astronomy, a new science which transformed our knowledge of space and provided the key to understanding the most mind-bending theory of the beginnings of the universe - the Big Bang.


(with soft subtitles)


First broadcast: 16 November 2015

Duration: 1 hour


SCREENSHOT


Media info:-

General

Format : MPEG-4

Format profile : Base Media

Codec ID : isom (isom/iso2/avc1/mp41)

File size : 1 011 MiB

Duration : 59mn 10s

Overall bit rate mode : Variable

Overall bit rate : 2 388 Kbps

Writing application : Lavf57.25.100


Video

ID : 1

Format : AVC

Format/Info : Advanced Video Codec

Format profile : [email protected]/* */

Format settings, CABAC : Yes

Format settings, ReFrames : 2 frames

Codec ID : avc1

Codec ID/Info : Advanced Video Coding

Duration : 59mn 10s

Bit rate mode : Variable

Bit rate : 2 289 Kbps

Maximum bit rate : 3 500 Kbps

Width : 1 280 pixels

Height : 720 pixels

Display aspect ratio : 16:9

Frame rate mode : Constant

Frame rate : 25.000 fps

Color space : YUV

Chroma subsampling : 4:2:0

Bit depth : 8 bits

Scan type : Progressive

Bits/(Pixel*Frame) : 0.099

Stream size : 969 MiB (96%)


Audio

ID : 2

Format : AAC

Format/Info : Advanced Audio Codec

Format profile : LC

Codec ID : 40

Duration : 59mn 10s

Bit rate mode : Variable

Bit rate : 93.5 Kbps

Maximum bit rate : 101 Kbps

Channel(s) : 2 channels

Channel positions : Front: L R

Sampling rate : 48.0 KHz

Frame rate : 46.875 fps (1024 spf)

Compression mode : Lossy

Stream size : 39.6 MiB (4%)



Torrent location

https://www.1337x.to/torrent/2218947/Timeshift-S15E06-How-Britain-Won-the-Space-Race-The-Story-of-Bernard-Lovell-and-Jodrell-Bank-720p-HD-soft-Eng-subs/

Trackers

Refresh Leechers : Updated August 26, 2017

1. http://explodie.org:6969/announce

2. http://tracker.tfile.me/announce

3. http://bigfoot1942.sektori.org:6969/announce

4. http://tracker2.wasabii.com.tw:6969/announce

5. http://tracker.mg64.net:6881/announce

6. http://bt.artvid.ru:6969/announce

7. http://tracker1.wasabii.com.tw:6969/announce

8. http://open.acgtracker.com:1096/announce

9. http://tracker.opentrackr.org/announce

10. http://mvgroup.org:2710/announce

11. udp://mgtracker.org:6969/announce

12. udp://asnet.pw:2710/announce

13. udp://tracker.mgtracker.org:2710/announce

14. udp://tracker4.piratux.com:6969/announce

15. udp://tracker.trackerfix.com:80/announce

16. udp://tracker.pomf.se:80/announce

17. udp://torrent.gresille.org:80/announce

18. udp://p4p.arenabg.com:1337

19. udp://ipv4.tracker.harry.lu:80/announce

20. udp://inferno.demonoid.ooo:3389/announce

21. udp://tracker.blackunicorn.xyz:6969/announce

22. udp://tracker.internetwarriors.net:1337/announce

23. udp://tracker.openbittorrent.com:80/announce

24. udp://eddie4.nl:6969/announce

25. udp://tracker.leechers-paradise.org:6969/announce

26. udp://tracker.opentrackr.org:1337/announce

27. udp://tracker.zer0day.to:1337/announce

28. udp://p4p.arenabg.ch:1337/announce

29. udp://tracker.coppersurfer.tk:6969/announce

30. udp://9.rarbg.to:2710/announce

31. udp://9.rarbg.com:2710/announce

32. udp://9.rarbg.me:2710/announce

33. udp://open.demonii.com:1337

34. udp://glotorrents.pw:6969/announce

35. udp://explodie.org:6969/announce

36. udp://eddie4.nl:6969/announce

37. udp://tracker.opentrackr.org:1337/announce

38. udp://tracker.piratepublic.com:1337/announce

39. udp://p4p.arenabg.com:1337/announce

40. udp://tracker.leechers-paradise.org:6969/announce

41. udp://9.rarbg.me:2780/announce

42. udp://tracker.coppersurfer.tk:6969/announce

Comments

You must log in to add a comment.

Embed Code

Sharing Widget

Top Series ( auto generated report )

FILENAME SIZE SEEDS PEERS ADDED UPD
[i] Star.Trek.Discovery.S01E05.WEBRip.x264-TBS[ettv]
Series - Misc , Quality: Audio 10/10 - Video 10/10
328.78 MB 2644 153 5 days 15 hours
[i] Supergirl.S03E02.HDTV.x264-LOL[eztv].mkv 284.54 MB 3891 649 3 days 2 days
[i] Lucifer.S03E03.HDTV.x264-LOL[eztv].mkv 256.91 MB 3877 737 5 days 4 days
[i] DCs.Legends.of.Tomorrow.S03E02.HDTV.x264-LOL[eztv].mkv 349.66 MB 3410 845 2 days 1 day
[i] The.Flash.2014.S04E02.HDTV.x264-LOL[eztv] 303.79 MB 3039 834 3 days 2 days
[i] The.Gifted.S01E03.HDTV.x264-KILLERS[eztv].mkv 281.79 MB 3002 731 3 days 3 days
[i] The.Big.Bang.Theory.S11E04.HDTV.x264-LOL[eztv].mkv
Series - Misc , Quality: Audio 9/10 - Video 9/10
135.14 MB 2790 656 4 days 1 day
[i] Gotham.S04E05.HDTV.x264-LOL[eztv].mkv 213.41 MB 2452 1539 23 hours 20 hours
[i] Star.Trek.Discovery.S01E05.iNTERNAL.720p.WEB.x264-BAMBOOZLE[eztv].mkv 968.15 MB 2390 579 4 days 3 days
[i] Scorpion.S04E04.HDTV.x264-SVA[eztv].mkv 282.66 MB 2336 354 3 days 2 days