The Return of Swamp Thing 1989 hevc-d3g.[PRiME]

DOWNLOAD TORRENT DOWNLOAD DOWNLOAD ANONYMOUS

Posted on May 19, 2017 in Movies » Misc , verified torrent

Size: 1.6 GB , Seeds: 0 , Peers: 1 ( Updated July 22, 2017 - Refresh )

* Download via Magnet Link , * To download files you need a Bittorrent Client , * How to download torrents from Bit Torrent Scene?

Scrape History ( seeds + peers )

Internal Files

The Return of Swamp Thing 1989 hevc-d3g.[PRiME]
Please Support!! Read More!!!.txt   334 Byte
The Return of Swamp Thing 1989 BluRay 1080p DD5.1 H265-d3g[PRiME].mkv   1.6 GB

Hash Code

c3fb31046118095795ce1b1360a3ce4bbf068c56

Description


The Return of Swamp Thing 1989 hevc-d3g.[PRiME]

ImDb: http://www.imdb.com/title/tt0098193

SCREENSHOT

Complete name : The Return of Swamp Thing 1989 BluRay 1080p DD5.1 H265-d3g[PRiME].mkv
Format : Matroska
Format version : Version 4 / Version 2
File size : 1.60 GiB
Duration : 1 h 27 min
Overall bit rate : 2 624 kb/s
Movie name : The Return of Swamp Thing 1989 BluRay 1080p DD5.1 H265-d3g
Encoded date : UTC 2017-05-18 17:13:37
Writing application : DVDFab 10.0.3.9
Writing library : libebml v1.3.4 + libmatroska v1.4.5

Video
ID : 1
Format : HEVC
Format/Info : High Efficiency Video Coding
Format profile : [email protected]/* */@Main
Codec ID : V_MPEGH/ISO/HEVC
Duration : 1 h 27 min
Bit rate : 2 174 kb/s
Width : 1 920 pixels
Height : 1 040 pixels
Display aspect ratio : 1.85:1
Frame rate mode : Constant
Frame rate : 24.000 FPS
Color space : YUV
Chroma subsampling : 4:2:0 (Type 1)
Bit depth : 8 bits
Bits/(Pixel*Frame) : 0.045
Stream size : 1.32 GiB (83%)
Default : Yes
Forced : No
Color range : Full
Color primaries : BT.709
Transfer characteristics : BT.709
Matrix coefficients : BT.709

Audio
ID : 2
Format : AC-3
Format/Info : Audio Coding 3
Mode extension : CM (complete main)
Format settings, Endianness : Big
Codec ID : A_AC3
Duration : 1 h 27 min
Bit rate mode : Constant
Bit rate : 448 kb/s
Channel(s) : 6 channels
Channel positions : Front: L C R, Side: L R, LFE
Sampling rate : 48.0 kHz
Frame rate : 31.250 FPS (1536 spf)
Compression mode : Lossy
Stream size : 279 MiB (17%)
Language : English
Default : Yes
Forced : No

Menu
00:00:00.000 : en:(01)00:00:00:000
00:10:57.375 : en:(02)00:10:57:375
00:23:19.666 : en:(03)00:23:19:666
00:31:19.125 : en:(04)00:31:19:125
00:43:31.833 : en:(05)00:43:31:833
00:52:05.125 : en:(06)00:52:05:125
01:03:48.625 : en:(07)01:03:48:625
01:18:33.541 : en:(08)01:18:33:541

SCREENSHOT

Click Image To View Full Size

SCREENSHOT
Click To View Screenshot
Click To View Screenshot
Click To View Screenshot

Torrent location

https://www.1337x.to/torrent/2218152/The-Return-of-Swamp-Thing-1989-hevc-d3g-PRiME/

Trackers

Refresh Leechers : Updated July 22, 2017

1. http://explodie.org:6969/announce

2. http://tracker.tfile.me/announce

3. http://bigfoot1942.sektori.org:6969/announce

4. http://tracker2.wasabii.com.tw:6969/announce

5. http://tracker.mg64.net:6881/announce

6. http://bt.artvid.ru:6969/announce

7. http://tracker1.wasabii.com.tw:6969/announce

8. http://open.acgtracker.com:1096/announce

9. http://tracker.opentrackr.org/announce

10. http://mvgroup.org:2710/announce

11. udp://mgtracker.org:6969/announce

12. udp://asnet.pw:2710/announce

13. udp://tracker.mgtracker.org:2710/announce

14. udp://tracker4.piratux.com:6969/announce

15. udp://tracker.trackerfix.com:80/announce

16. udp://tracker.pomf.se:80/announce

17. udp://torrent.gresille.org:80/announce

18. udp://p4p.arenabg.com:1337

19. udp://ipv4.tracker.harry.lu:80/announce

20. udp://inferno.demonoid.ooo:3389/announce

21. udp://tracker.blackunicorn.xyz:6969/announce

22. udp://tracker.internetwarriors.net:1337/announce

23. udp://tracker.openbittorrent.com:80/announce

24. udp://eddie4.nl:6969/announce

25. udp://tracker.leechers-paradise.org:6969/announce

26. udp://tracker.opentrackr.org:1337/announce

27. udp://tracker.zer0day.to:1337/announce

28. udp://p4p.arenabg.ch:1337/announce

29. udp://tracker.coppersurfer.tk:6969/announce

30. udp://9.rarbg.to:2710/announce

31. udp://9.rarbg.com:2710/announce

32. udp://9.rarbg.me:2710/announce

33. udp://open.demonii.com:1337

34. udp://glotorrents.pw:6969/announce

35. udp://eddie4.nl:6969/announce

36. udp://explodie.org:6969/announce

37. udp://9.rarbg.me:2710/announce

38. udp://9.rarbg.to:2710/announce

39. udp://9.rarbg.com:2710/announce

40. udp://p4p.arenabg.com:1337/announce

41. udp://p4p.arenabg.ch:1337/announce

42. udp://ipv4.tracker.harry.lu:80/announce

43. udp://tracker.zer0day.to:1337/announce

44. udp://tracker.opentrackr.org:1337/announce

45. udp://tracker.leechers-paradise.org:6969/announce

46. udp://tracker.coppersurfer.tk:6969/announce

47. udp://tracker.ilibr.org:80/announce

48. udp://tracker.ilibr.org:6969/announce

Comments

You must log in to add a comment.

Embed Code

Sharing Widget

Related torrents

FILENAME SIZE SEEDS PEERS ADDED UPD
[i] Swamp Thing Seasons 01-03+Movies(1982)The Return of Swamp Thing(1989)DVDRip
posted by ShoN in Series - Misc
17.52 GB 3 3 1 month 2 weeks
[i] Return.Swamp.Thing-BDMF 700.57 MB 0 1 5 years 3 months
[i] Return.Swamp.Thing-BDMF 700.57 MB 0 0 5 years 3 months
[i] The.Return.of.Swamp.Thing.1989.iNTERNAL.BDRip.x264-TABULARiA 938.32 MB 0 0 3 months 1 month
[i] The.Return.of.Swamp.Thing.1989.iNTERNAL.BDRip.x264-TABULARiA[PRiME] 923.65 MB 0 0 3 months 1 month

Top Movies ( auto generated report )

FILENAME SIZE SEEDS PEERS ADDED UPD
[i] Baywatch (2017) [720p] [YTS AG] 896.85 MB 12160 7311 4 days 1 day
[i] Baywatch (2017) [1080p] [YTS AG] 1.85 GB 8550 3546 4 days 1 day
[i] Rough Night (2017) [720p] [YTS AG] 737.07 MB 3856 2420 2 days 1 day
[i] Security (2017) [720p] [YTS AG] 680.08 MB 3397 1111 5 days 15 hours
[i] Inconceivable (2017) [720p] [YTS AG] 777.71 MB 3109 1605 4 days 3 days
[i] Security (2017) [1080p] [YTS AG] 1.4 GB 2868 873 5 days 2 days
[i] Rough Night (2017) [1080p] [YTS AG] 1.53 GB 2682 1518 2 days 1 day
[i] The Recall (2017) [720p] [YTS AG] 672.5 MB 2550 750 4 days 1 day
[i] The Recall (2017) [1080p] [YTS AG] 1.39 GB 2469 1416 4 days 3 days
[i] My Cousin Rachel (2017) [720p] [YTS AG] 774.69 MB 2257 1418 4 days 3 days