The Lego Ninjago Movie 2017 720p HC HDRip X264 AC3

DOWNLOAD TORRENT DOWNLOAD DOWNLOAD ANONYMOUS

Posted by moviefreak •254 on October 12, 2017 in Movies » Animation , verified torrent

Size: 713.09 MB , Seeds: 10 , Peers: 9 ( Updated October 18, 2017 - Refresh )

* Download via Magnet Link , * To download files you need a Bittorrent Client , * How to download torrents from Bit Torrent Scene?

Scrape History ( seeds + peers )

Internal Files

The Lego Ninjago Movie 2017 720p HC HDRip X264 AC3
The Lego Ninjago Movie 2017 720p HC HDRip X264 AC3.mkv   713.09 MB

Hash Code

81106a48c13b10e3e9b3993e034d17d7c9e7a192

Description

SCREENSHOT

General
Format : Matroska
Format version : Version 4 / Version 2
File size : 713 MiB
Duration : 1 h 37 min
Overall bit rate : 1 025 kb/s

Video
ID : 1
Format : AVC
Format/Info : Advanced Video Codec
Format profile : High@L3.1
Format settings : CABAC / 4 Ref Frames
Format settings, CABAC : Yes
Format settings, RefFrames : 4 frames
Codec ID : V_MPEG4/ISO/AVC
Duration : 1 h 37 min
Bit rate : 900 kb/s
Width : 1 280 pixels
Height : 528 pixels
Display aspect ratio : 2.40:1
Frame rate mode : Constant
Frame rate : 25.000 FPS
Color space : YUV
Chroma subsampling : 4:2:0
Bit depth : 8 bits
Scan type : Progressive
Bits/(Pixel*Frame) : 0.053
Stream size : 623 MiB (87%)
Writing library : x264 core 148 r2643 5c65704
Default : Yes
Forced : No

Audio
ID : 2
Format : AC-3
Format/Info : Audio Coding 3
Format settings, Endianness : Big
Codec ID : A_AC3
Duration : 1 h 37 min
Bit rate mode : Constant
Bit rate : 128 kb/s
Channel(s) : 2 channels
Channel positions : Front: L R
Sampling rate : 44.1 kHz
Frame rate : 28.711 FPS (1536 SPF)
Bit depth : 16 bits
Compression mode : Lossy
Stream size : 89.0 MiB (12%)
Service kind : Complete Main
Default : Yes
Forced : No


SCREENSHOT
SCREENSHOT
SCREENSHOT
SCREENSHOT
SCREENSHOT

Trackers

Refresh Leechers : Updated October 18, 2017

1. http://ipv4.tracker.harry.lu/announce

2. http://ipv4.tracker.harry.lu:80/announce

3. udp://tracker.pirateparty.gr:6969/announce

4. http://tracker.devil-torrents.pl:80/announce

5. http://tracker.devil-torrents.pl/announce

6. http://open.kickasstracker.com/announce

7. https://open.kickasstracker.com:443/announce

8. udp://p4p.arenabg.com:1337/announce

9. udp://9.rarbg.me:2770/announce

10. udp://9.rarbg.com:2740/announce

11. udp://9.rarbg.to:2750/announce

12. udp://tracker.coppersurfer.tk:6969/announce

13. udp://tracker.leechers-paradise.org:6969/announce

14. udp://tracker.zer0day.to:1337/announce

15. http://tracker.devil-torrents.pl/announce

Comments

You must log in to add a comment.

Embed Code

Sharing Widget

Related torrents

FILENAME SIZE SEEDS PEERS ADDED UPD
[i] The.Lego.Ninjago.Movie.2017.KORSUB.HDRip.x264-STUTTERSHIT[rarbg] 856.15 MB 186 29 1 week 3 days
[i] The.Lego.Ninjago.Movie.2017.KORSUB.HDRip.XviD.MP3-STUTTERSHIT[rarbg] 1.16 GB 94 15 1 week 3 days
[i] The Lego Ninjago Movie 2017 HC 720p HDRiP AC3 x264-LEGi0N
posted by hotpena in Movies - Animation
1.41 GB 20 8 1 week 3 days
[i] The Lego Ninjago Movie 2017 1080p HC HDRip X264 AC3
posted by moviefreak in Movies - Animation
1.1 GB 17 5 1 week 3 days
[i] The.Lego.Ninjago.Movie.2017.HC.HDRip.XviD.AC3-EVO 1.24 GB 14 10 1 week 3 days
[i] The Lego Ninjago Movie 2017 720p HC HDRip X264 AC3-EVO
posted by hotpena in Movies - Animation
2.41 GB 13 9 1 week 3 days
[i] The.Lego.Ninjago.Movie.2017.HC.720p.HDRiP.AC3.x264-LEGi0N 1.41 GB 11 4 1 week 3 days
[i] The.Lego.Ninjago.Movie.2017.1080p.HC.HDRip.X264.AC3-EVO 3.77 GB 10 11 1 week 3 days
[i] The Lego Ninjago Movie 2017 1080p HC HDRip X264 AC3-EVO
posted by hotpena in Movies - Animation
3.77 GB 9 8 1 week 3 days
[i] The Lego Ninjago Movie 2017 HC HDRip XviD AC3-EVO
posted by hotpena in Movies - Animation
1.24 GB 6 4 1 week 3 days

Top Movies ( auto generated report )

FILENAME SIZE SEEDS PEERS ADDED UPD
[i] The.Only.Living.Boy.in.New.York.2017.1080p.WEB-DL.DD5.1.H264-FGT 3.5 GB 1996 767 2 days 2 hours
[i] Jungle.2017.WEB-DL.x264-FGT [rarbg] 997.65 MB 2183 1238 2 days 1 day
[i] Nightworld.2017.1080p.WEB-DL.DD5.1.H264-FGT [rarbg] 3.16 GB 1700 1098 2 days 1 day
[i] Bad.Day.for.the.Cut.2017.1080p.WEB-DL.DD5.1.H264-FGT. 3.4 GB 1583 963 2 days 1 day
[i] Armed Response (2017) [720p] [YTS AG] 703.96 MB 2033 1031 1 day 2 hours
[i] Open Water 3 Cage Dive (2017) [720p] [YTS AG] 589.39 MB 1264 496 2 days 1 day
[i] Wheelman.2017.WEBRip.x264-FGT [rarbg] 718.15 MB 1262 698 1 day 1 day
[i] A Very Sordid Wedding (2017) [720p] [YTS AG] 792.96 MB 1506 637 1 day 2 hours
[i] A Very Sordid Wedding (2017) [1080p] [YTS AG] 1.65 GB 1138 458 1 day 2 hours
[i] Armed Response (2017) [1080p] [YTS AG] 1.44 GB 1265 609 1 day 2 hours