The.Deal.2008.720p.BluRay.x264-x0r[PRiME]

DOWNLOAD TORRENT DOWNLOAD DOWNLOAD ANONYMOUS

Posted on May 19, 2017 in Movies » Misc , verified torrent

Size: 2.11 GB , Seeds: 0 , Peers: 4 ( Updated August 26, 2017 - Refresh )

* Download via Magnet Link , * To download files you need a Bittorrent Client , * How to download torrents from Bit Torrent Scene?

Scrape History ( seeds + peers )

Internal Files

The.Deal.2008.720p.BluRay.x264-x0r[PRiME]
Please Support!! Read More!!!.txt   334 Byte
The.Deal.2008.720p.BluRay.x264-x0r.fanart.jpg   134.88 KB
The.Deal.2008.720p.BluRay.x264-x0r.jpg   217.4 KB
The.Deal.2008.720p.BluRay.x264-x0r[PRiME].mkv   2.1 GB
The.Deal.2008.720p.BluRay.x264-x0r[TRAILER-Theatrical Trailer][PRiME].mp4   8.71 MB

Hash Code

5d9e64e5b30634ff95372a08be3fd17cad04584d

Description


The.Deal.2008.720p.BluRay.x264-x0r[PRiME]

ImDb: http://www.imdb.com/title/tt0848281

SCREENSHOT

Complete name : The.Deal.2008.720p.BluRay.x264-x0r[TRAILER-Theatrical Trailer][PRiME].mp4
Format : MPEG-4
Format profile : Base Media / Version 2
Codec ID : mp42 (isom/mp42)
File size : 8.71 MiB
Duration : 2 min 2 s
Overall bit rate mode : Variable
Overall bit rate : 595 kb/s
Encoded date : UTC 2014-01-09 01:24:08
Tagged date : UTC 2014-01-09 01:24:08

Video
ID : 1
Format : AVC
Format/Info : Advanced Video Codec
Format profile : [email protected]/* */
Format settings, CABAC : No
Format settings, ReFrames : 1 frame
Codec ID : avc1
Codec ID/Info : Advanced Video Coding
Duration : 2 min 2 s
Source duration : 2 min 2 s
Bit rate : 497 kb/s
Maximum bit rate : 1 257 kb/s
Width : 640 pixels
Height : 360 pixels
Display aspect ratio : 16:9
Frame rate mode : Constant
Frame rate : 29.970 (30000/1001) FPS
Color space : YUV
Chroma subsampling : 4:2:0
Bit depth : 8 bits
Scan type : Progressive
Bits/(Pixel*Frame) : 0.072
Stream size : 7.26 MiB (83%)
Source stream size : 7.26 MiB (83%)
Encoded date : UTC 1904-01-01 00:00:00
Tagged date : UTC 2014-01-09 01:24:09

Audio
ID : 2
Format : AAC
Format/Info : Advanced Audio Codec
Format profile : LC
Codec ID : 40
Duration : 2 min 2 s
Bit rate mode : Variable
Bit rate : 96.0 kb/s
Maximum bit rate : 104 kb/s
Channel(s) : 2 channels
Channel positions : Front: L R
Sampling rate : 44.1 kHz
Frame rate : 43.066 FPS (1024 spf)
Compression mode : Lossy
Stream size : 1.40 MiB (16%)
Title : IsoMedia File Produced by Google, 5-11-2011
Encoded date : UTC 2014-01-09 01:24:08
Tagged date : UTC 2014-01-09 01:24:09

SCREENSHOT

Click Image To View Full Size

SCREENSHOT
Click To View Screenshot
Click To View Screenshot
Click To View Screenshot

Torrent location

https://www.1337x.to/torrent/2219161/The-Deal-2008-720p-BluRay-x264-x0r-PRiME/

Trackers

Refresh Leechers : Updated August 26, 2017

1. http://explodie.org:6969/announce

2. http://tracker.tfile.me/announce

3. http://bigfoot1942.sektori.org:6969/announce

4. http://tracker2.wasabii.com.tw:6969/announce

5. http://tracker.mg64.net:6881/announce

6. http://bt.artvid.ru:6969/announce

7. http://tracker1.wasabii.com.tw:6969/announce

8. http://open.acgtracker.com:1096/announce

9. http://tracker.opentrackr.org/announce

10. http://mvgroup.org:2710/announce

11. udp://mgtracker.org:6969/announce

12. udp://asnet.pw:2710/announce

13. udp://tracker.mgtracker.org:2710/announce

14. udp://tracker4.piratux.com:6969/announce

15. udp://tracker.trackerfix.com:80/announce

16. udp://tracker.pomf.se:80/announce

17. udp://torrent.gresille.org:80/announce

18. udp://p4p.arenabg.com:1337

19. udp://ipv4.tracker.harry.lu:80/announce

20. udp://inferno.demonoid.ooo:3389/announce

21. udp://tracker.blackunicorn.xyz:6969/announce

22. udp://tracker.internetwarriors.net:1337/announce

23. udp://tracker.openbittorrent.com:80/announce

24. udp://eddie4.nl:6969/announce

25. udp://tracker.leechers-paradise.org:6969/announce

26. udp://tracker.opentrackr.org:1337/announce

27. udp://tracker.zer0day.to:1337/announce

28. udp://p4p.arenabg.ch:1337/announce

29. udp://tracker.coppersurfer.tk:6969/announce

30. udp://9.rarbg.to:2710/announce

31. udp://9.rarbg.com:2710/announce

32. udp://9.rarbg.me:2710/announce

33. udp://open.demonii.com:1337

34. udp://glotorrents.pw:6969/announce

35. udp://eddie4.nl:6969/announce

36. udp://explodie.org:6969/announce

37. udp://9.rarbg.me:2710/announce

38. udp://9.rarbg.to:2710/announce

39. udp://9.rarbg.com:2710/announce

40. udp://p4p.arenabg.com:1337/announce

41. udp://p4p.arenabg.ch:1337/announce

42. udp://ipv4.tracker.harry.lu:80/announce

43. udp://tracker.zer0day.to:1337/announce

44. udp://tracker.opentrackr.org:1337/announce

45. udp://tracker.leechers-paradise.org:6969/announce

46. udp://tracker.coppersurfer.tk:6969/announce

47. udp://tracker.ilibr.org:80/announce

48. udp://tracker.ilibr.org:6969/announce

Comments

You must log in to add a comment.

Embed Code

Sharing Widget

Top Movies ( auto generated report )

FILENAME SIZE SEEDS PEERS ADDED UPD
[i] American Assassin 2017 HD-TS x264-UNiQUE 1.66 GB 2850 2517 1 day 14 hours
[i] A Ghost Story (2017) [720p] [YTS AG] 679.19 MB 1752 344 5 days 3 hours
[i] Revolt (2017) [720p] [YTS AG] 652.79 MB 2424 1114 4 days 3 days
[i] A Ghost Story (2017) [1080p] [YTS AG] 1.4 GB 1409 242 5 days 51 min
[i] Shock Wave (2017) [1080p] [YTS AG] 1.8 GB 2310 1258 4 days 3 days
[i] Shock Wave (2017) [720p] [YTS AG] 874.7 MB 2284 916 4 days 22 hours
[i] The Bad Batch (2016) [720p] [YTS AG] 884.03 MB 2034 964 4 days 3 days
[i] The Book of Henry (2017) [720p] [YTS AG] 775.85 MB 2013 1579 2 days 1 day
[i] Killing.Gunther.2017.1080p.WEB-DL.DD5.1.H264-FGT 3.61 GB 1993 1371 4 days 3 days
[i] Berlin Syndrome (2017) [720p] [YTS AG] 810.27 MB 1949 1438 2 days 1 day