Tall.Men.2016.DVDRip.x264-FRAGMENT[PRiME]

DOWNLOAD TORRENT DOWNLOAD DOWNLOAD ANONYMOUS

Posted on May 19, 2017 in Movies » Misc , verified torrent

Size: 517.15 MB , Seeds: 1 , Peers: 1 ( Updated May 25, 2017 - Refresh )

* Download via Magnet Link , * To download files you need a Bittorrent Client , * How to download torrents from Bit Torrent Scene?

Loading...

Scrape History ( seeds + peers )

Internal Files

Tall.Men.2016.DVDRip.x264-FRAGMENT[PRiME]
Please Support!! Read More!!!.txt   334 Byte
tall.men.2016.dvdrip.x264.fragment[PRiME].mkv   516.6 MB

Hash Code

c92d7bc24b6cb1337509b34be4bb81f86454eeaf

Description


Tall.Men.2016.DVDRip.x264-FRAGMENT[PRiME]

ImDb: http://www.imdb.com/title/tt5613902

SCREENSHOT

Complete name : tall.men.2016.dvdrip.x264.fragment[PRiME].mkv
Format : Matroska
Format version : Version 4 / Version 2
File size : 517 MiB
Duration : 2 h 13 min
Overall bit rate : 539 kb/s
Encoded date : UTC 2017-05-14 14:33:43
Writing application : mkvmerge v9.6.0 ('Slave To Your Mind') 64bit
Writing library : libebml v1.3.4 + libmatroska v1.4.5

Video
ID : 2
Format : AVC
Format/Info : Advanced Video Codec
Format profile : [email protected]/* */
Format settings, CABAC : Yes
Format settings, ReFrames : 5 frames
Codec ID : V_MPEG4/ISO/AVC
Duration : 2 h 13 min
Bit rate : 453 kb/s
Width : 720 pixels
Height : 406 pixels
Display aspect ratio : 16:9
Frame rate mode : Constant
Frame rate : 23.976 (24000/1001) FPS
Color space : YUV
Chroma subsampling : 4:2:0
Bit depth : 8 bits
Scan type : Progressive
Bits/(Pixel*Frame) : 0.065
Stream size : 434 MiB (84%)
Writing library : x264 core 148 r2721 72d53ab
Encoding settings : cabac=1 / ref=5 / deblock=1:0:0 / analyse=0x3:0x113 / me=hex / subme=8 / psy=1 / psy_rd=1.00:0.00 / mixed_ref=1 / me_range=16 / chroma_me=1 / trellis=2 / 8x8dct=1 / cqm=0 / deadzone=21,11 / fast_pskip=1 / chroma_qp_offset=-2 / threads=12 / lookahead_threads=2 / sliced_threads=0 / nr=0 / decimate=1 / interlaced=0 / bluray_compat=0 / constrained_intra=0 / bframes=3 / b_pyramid=2 / b_adapt=1 / b_bias=0 / direct=3 / weightb=1 / open_gop=0 / weightp=2 / keyint=250 / keyint_min=23 / scenecut=40 / intra_refresh=0 / rc_lookahead=50 / rc=crf / mbtree=1 / crf=19.0 / qcomp=0.60 / qpmin=0 / qpmax=69 / qpstep=4 / ip_ratio=1.40 / aq=1:1.00
Language : English
Default : Yes
Forced : No

Audio
ID : 1
Format : AAC
Format/Info : Advanced Audio Codec
Format profile : LC
Codec ID : A_AAC
Duration : 2 h 13 min
Bit rate : 83.8 kb/s
Channel(s) : 2 channels
Channel positions : Front: L R
Sampling rate : 48.0 kHz
Frame rate : 46.875 FPS (1024 spf)
Compression mode : Lossy
Delay relative to video : 9 ms
Stream size : 80.3 MiB (16%)
Default : Yes
Forced : No

Menu
00:00:00.054 : en:00:00:00.054

SCREENSHOT

Click Image To View Full Size

SCREENSHOT
Click To View Screenshot
Click To View Screenshot
Click To View Screenshot

Torrent location

https://www.1337x.to/torrent/2219642/Tall-Men-2016-DVDRip-x264-FRAGMENT-PRiME/

Trackers

Refresh Leechers : Updated May 25, 2017

1. http://explodie.org:6969/announce

2. http://tracker.tfile.me/announce

3. http://bigfoot1942.sektori.org:6969/announce

4. http://tracker2.wasabii.com.tw:6969/announce

5. http://tracker.mg64.net:6881/announce

6. http://bt.artvid.ru:6969/announce

7. http://tracker1.wasabii.com.tw:6969/announce

8. http://open.acgtracker.com:1096/announce

9. http://tracker.opentrackr.org/announce

10. http://mvgroup.org:2710/announce

11. udp://mgtracker.org:6969/announce

12. udp://asnet.pw:2710/announce

13. udp://tracker.mgtracker.org:2710/announce

14. udp://tracker4.piratux.com:6969/announce

15. udp://tracker.trackerfix.com:80/announce

16. udp://tracker.pomf.se:80/announce

17. udp://torrent.gresille.org:80/announce

18. udp://p4p.arenabg.com:1337

19. udp://ipv4.tracker.harry.lu:80/announce

20. udp://inferno.demonoid.ooo:3389/announce

21. udp://tracker.blackunicorn.xyz:6969/announce

22. udp://tracker.internetwarriors.net:1337/announce

23. udp://tracker.openbittorrent.com:80/announce

24. udp://eddie4.nl:6969/announce

25. udp://tracker.leechers-paradise.org:6969/announce

26. udp://tracker.opentrackr.org:1337/announce

27. udp://tracker.zer0day.to:1337/announce

28. udp://p4p.arenabg.ch:1337/announce

29. udp://tracker.coppersurfer.tk:6969/announce

30. udp://9.rarbg.to:2710/announce

31. udp://9.rarbg.com:2710/announce

32. udp://9.rarbg.me:2710/announce

33. udp://open.demonii.com:1337

34. udp://glotorrents.pw:6969/announce

35. udp://eddie4.nl:6969/announce

36. udp://explodie.org:6969/announce

37. udp://9.rarbg.me:2710/announce

38. udp://9.rarbg.to:2710/announce

39. udp://9.rarbg.com:2710/announce

40. udp://p4p.arenabg.com:1337/announce

41. udp://p4p.arenabg.ch:1337/announce

42. udp://ipv4.tracker.harry.lu:80/announce

43. udp://tracker.zer0day.to:1337/announce

44. udp://tracker.opentrackr.org:1337/announce

45. udp://tracker.leechers-paradise.org:6969/announce

46. udp://tracker.coppersurfer.tk:6969/announce

47. udp://tracker.ilibr.org:80/announce

48. udp://tracker.ilibr.org:6969/announce

Comments

You must log in to add a comment.

Embed Code

Sharing Widget

Related torrents

FILENAME SIZE SEEDS PEERS ADDED UPD
[i] Mizuno Asahi - Completely Uncut Real Creampies Asahi Mizuno [MIGD-698] (Maeda Kauntakku, MOODYZ) [cen] [2016, Creampie, Older Sister, Big Tits, Training, Tall Girl, DVDRip] 1.59 GB 1 0 10 months 8 months
[i] Kana Ito - How To Select A Company Where A Woman Can Succeed [TMVI-070] (Baltan) [cen] [2016, Office Lady, Pantyhose, Huge Butt, Tall, DVDRip] 1.24 GB 0 0 1 year 5 days
[i] Yuki Shin, Yuri Honma, Sesera Harukawa, Nina Nishimura, Chisa Shihono, Sena Minami, Noa, Mei Mahiro - Nude Oil Cat Fight 7 HANABI [RCT-865] (Koube Tarou, ROCKET) [cen] [2016, Lesbian, Big Tits, Rape, Tall, Lotion, Fighting Action, DVDRip] 1.92 GB 0 0 11 months 8 months

Top Movies ( auto generated report )

FILENAME SIZE SEEDS PEERS ADDED UPD
[i] A Cure for Wellness (2016) [720p] [YTS AG] 1.07 GB 4250 2527 2 days 16 hours
[i] T2 Trainspotting (2017) [720p] [YTS AG] 860.23 MB 3476 1138 3 days 16 hours
[i] Colossal.2016.1080p.WEB-DL.AAC2.0.H264-FGT 3.5 GB 2217 850 3 days 16 hours
[i] Black.Butterfly.2017.1080p.WEB-DL.DD5.1.H264-FGT 3.22 GB 1672 764 3 days 16 hours
[i] Voice from the Stone (2017) [720p] [YTS AG] 669.8 MB 1425 969 1 day 15 hours
[i] Swallows and Amazons (2016) [720p] [YTS AG] 706.61 MB 1296 864 1 day 15 hours
[i] McLaren (2016) [1080p] [YTS AG] 1.43 GB 1295 446 2 days 16 hours
[i] McLaren (2016) [720p] [YTS AG] 689.56 MB 1143 499 2 days 16 hours
[i] The Last Word (2017) [720p] [YTS AG] 782.53 MB 1450 997 1 day 15 hours
[i] The Ticket (2016) [720p] [YTS AG] 728.18 MB 1069 600 2 days 16 hours