So Close 2002 720p Esub DVD Dual Audio Hindi English GOPISAHI

DOWNLOAD TORRENT DOWNLOAD DOWNLOAD ANONYMOUS

Posted by gopisahi •268 on August 13, 2017 in Movies » Action , verified torrent

Size: 676.08 MB , Seeds: 12 , Peers: 8 ( Updated August 19, 2017 - Refresh )

* Download via Magnet Link , * To download files you need a Bittorrent Client , * How to download torrents from Bit Torrent Scene?

Scrape History ( seeds + peers )

Internal Files

So Close 2002 720p Esub DVD Dual Audio Hindi English GOPISAHI.mkv
So Close 2002 720p Esub DVD Dual Audio Hindi English GOPISAHI.mkv   676.08 MB

Hash Code

5aaccaee37c1658fb4e2e78e76a316475bac5d0e

Description

SCREENSHOT
General
Unique ID : 2548457206059336929364791111589...
Complete name : F:DUB2002So Close 2002 720p Esub DVD Dual Audio Hindi English GOPISAHI
Format : Matroska
Format version : Version 4 / Version 2
File size : 676 MiB
Duration : 1 h 46 min
Overall bit rate : 889 kb/s
Movie name : So Close 2002
Encoded date : UTC 2017-08-13 01:56:13

Video
Format : AVC
Codec ID : V_MPEG4/ISO/AVC
Duration : 1 h 46 min
Bit rate : 700 kb/s
Width : 1 280 pixels
Height : 694 pixels
Display aspect ratio : 1.85:1
Frame rate mode : Constant
Frame rate : 29.970 (30000/1001) FPS
Stream size : 532 MiB (79%)
Title : GOPISAHI
Writing library : x264 core 148 r2708 86b7198

Audio #1
Format : AAC
Duration : 1 h 46 min
Bit rate : 92.1 kb/s
Channel(s) : 6 channels
Channel positions : Front: L C R, Side: L R, LFE
Sampling rate : 44.1 kHz
Frame rate : 43.066 FPS (1024 SPF)
Stream size : 70.0 MiB (10%)
Language : English

Audio #2
ID : 3
Format : AAC
Duration : 1 h 46 min
Bit rate : 96.0 kb/s
Channel(s) : 6 channels
Channel positions : Front: L C R, Side: L R, LFE
Sampling rate : 44.1 kHz
Frame rate : 43.066 FPS (1024 SPF)
Stream size : 71.9 MiB (11%)
Language : Hindi

Text
Language : English
SCREENSHOT
SCREENSHOT
SCREENSHOT
SCREENSHOT

Trackers

Refresh Leechers : Updated August 19, 2017

1. udp://tracker.coppersurfer.tk:6969/announce

2. udp://tracker.opentrackr.org:1337/announce

3. udp://tracker.zer0day.to:1337/announce

4. udp://zer0day.to:1337/announce

5. udp://p4p.arenabg.com:1337/announce

6. udp://explodie.org:6969/announce

7. udp://tracker.leechers-paradise.org:6969/announce

8. udp://public.popcorn-tracker.org:6969/announce

9. udp://explodie.org:6969

Comments

You must log in to add a comment.

Embed Code

Sharing Widget

Top Movies ( auto generated report )

FILENAME SIZE SEEDS PEERS ADDED UPD
[i] Baywatch (2017) [720p] [YTS AG] 896.85 MB 14189 10566 2 days 23 hours
[i] Baywatch (2017) [1080p] [YTS AG] 1.85 GB 11328 9572 2 days 2 days
[i] Security (2017) [720p] [YTS AG] 680.08 MB 3842 803 4 days 2 hours
[i] Security (2017) [1080p] [YTS AG] 1.4 GB 2868 873 4 days 8 hours
[i] Inconceivable (2017) [720p] [YTS AG] 777.71 MB 3109 1605 2 days 1 day
[i] What.Happened.to.Monday.2017.WEBRip.x264-FGT[rarbg] 1.06 GB 2846 1500 3 days 2 days
[i] The Recall (2017) [720p] [YTS AG] 672.5 MB 2550 750 2 days 5 hours
[i] The Recall (2017) [1080p] [YTS AG] 1.39 GB 2469 1416 2 days 2 days
[i] Inconceivable (2017) [1080p] [YTS AG] 1.61 GB 2453 1236 2 days 1 day
[i] Rough Night (2017) [720p] [YTS AG] 737.07 MB 2762 2962 10 hours 8 hours