Rififi.1955.iNTERNAL.BDRip.x264-LiBRARiANS

DOWNLOAD TORRENT DOWNLOAD DOWNLOAD ANONYMOUS

Posted on August 12, 2017 in Movies » Misc , verified torrent

Size: 1.25 GB , Seeds: 3 , Peers: 2 ( Updated August 18, 2017 - Refresh )

* Download via Magnet Link , * To download files you need a Bittorrent Client , * How to download torrents from Bit Torrent Scene?

Scrape History ( seeds + peers )

Internal Files

Rififi.1955.iNTERNAL.BDRip.x264-LiBRARiANS
Rififi.1955.iNTERNAL.BDRip.x264-LiBRARiANS.mkv   1.25 GB
lib-rififi.1955.internal.bdrip.x264.nfo   640 Byte

Hash Code

a64293bfddac0571202ae88a45f8937302eaa643

Description

Rififi.1955.iNTERNAL.BDRip.x264-LiBRARiANS

ImDb: http://www.imdb.com/title/tt0048021

SCREENSHOT

Complete name : Rififi.1955.iNTERNAL.BDRip.x264-LiBRARiANS.mkv
Format : Matroska
Format version : Version 4 / Version 2
File size : 1.25 GiB
Duration : 1 h 58 min
Overall bit rate : 1 515 kb/s
Encoded date : UTC 2017-08-12 11:03:03
Writing application : mkvmerge v14.0.0 ('Flow') 64bit
Writing library : libebml v1.3.4 + libmatroska v1.4.5

Video
ID : 1
Format : AVC
Format/Info : Advanced Video Codec
Format profile : [email protected]/* */
Format settings, CABAC : Yes
Format settings, ReFrames : 8 frames
Codec ID : V_MPEG4/ISO/AVC
Duration : 1 h 58 min
Bit rate : 1 364 kb/s
Width : 720 pixels
Height : 526 pixels
Display aspect ratio : 4:3
Frame rate mode : Constant
Frame rate : 23.976 (24000/1001) FPS
Color space : YUV
Chroma subsampling : 4:2:0
Bit depth : 8 bits
Scan type : Progressive
Bits/(Pixel*Frame) : 0.150
Stream size : 1.13 GiB (90%)
Writing library : x264 core 152 r2851 ba24899
Encoding settings : cabac=1 / ref=8 / deblock=1:-3:-3 / analyse=0x3:0x133 / me=umh / subme=9 / psy=1 / psy_rd=1.00:0.25 / mixed_ref=1 / me_range=24 / chroma_me=1 / trellis=2 / 8x8dct=1 / cqm=0 / deadzone=21,11 / fast_pskip=1 / chroma_qp_offset=-4 / threads=16 / lookahead_threads=1 / sliced_threads=0 / nr=0 / decimate=1 / interlaced=0 / bluray_compat=0 / constrained_intra=0 / bframes=3 / b_pyramid=2 / b_adapt=2 / b_bias=0 / direct=3 / weightb=1 / open_gop=0 / weightp=2 / keyint=240 / keyint_min=24 / scenecut=40 / intra_refresh=0 / rc_lookahead=60 / rc=crf / mbtree=1 / crf=21.0 / qcomp=0.60 / qpmin=0 / qpmax=69 / qpstep=4 / ip_ratio=1.40 / aq=1:0.75
Default : Yes
Forced : No
Color range : Limited
Matrix coefficients : BT.709

Audio #1
ID : 2
Format : AAC
Format/Info : Advanced Audio Codec
Format profile : LC
Codec ID : A_AAC
Duration : 1 h 58 min
Bit rate : 74.4 kb/s
Channel(s) : 1 channel
Channel positions : Front: C
Sampling rate : 48.0 kHz
Frame rate : 46.875 FPS (1024 spf)
Compression mode : Lossy
Delay relative to video : 9 ms
Stream size : 63.0 MiB (5%)
Language : French
Default : Yes
Forced : No

Audio #2
ID : 3
Format : AAC
Format/Info : Advanced Audio Codec
Format profile : LC
Codec ID : A_AAC
Duration : 1 h 58 min
Bit rate : 74.4 kb/s
Channel(s) : 1 channel
Channel positions : Front: C
Sampling rate : 48.0 kHz
Frame rate : 46.875 FPS (1024 spf)
Compression mode : Lossy
Delay relative to video : 9 ms
Stream size : 63.0 MiB (5%)
Language : English
Default : No
Forced : No

Text
ID : 4
Format : UTF-8
Codec ID : S_TEXT/UTF8
Codec ID/Info : UTF-8 Plain Text
Duration : 1 h 54 min
Bit rate : 23 b/s
Count of elements : 686
Stream size : 19.9 KiB (0%)
Language : English
Default : Yes
Forced : No

Menu
00:00:00.000 : en:00:00:00.000
00:02:11.923 : en:00:02:11.923
00:05:32.457 : en:00:05:32.457
00:10:46.020 : en:00:10:46.020
00:12:18.112 : en:00:12:18.112
00:16:46.380 : en:00:16:46.380
00:20:07.581 : en:00:20:07.581
00:21:50.309 : en:00:21:50.309
00:28:12.441 : en:00:28:12.441
00:30:35.208 : en:00:30:35.208
00:35:15.739 : en:00:35:15.739
00:41:31.864 : en:00:41:31.864
00:46:51.809 : en:00:46:51.809
00:56:11.743 : en:00:56:11.743
01:03:28.179 : en:01:03:28.179
01:08:49.125 : en:01:08:49.125
01:11:41.672 : en:01:11:41.672
01:15:47.918 : en:01:15:47.918
01:17:37.278 : en:01:17:37.278
01:22:52.551 : en:01:22:52.551
01:31:40.412 : en:01:31:40.412
01:40:53.798 : en:01:40:53.798
01:46:25.754 : en:01:46:25.754
01:51:15.669 : en:01:51:15.669

SCREENSHOT

SCREENSHOT

Click To View Screenshot

Click To View Screenshot

Click To View Screenshot

Torrent location

https://www.1337x.to/torrent/2372078/Rififi-1955-iNTERNAL-BDRip-x264-LiBRARiANS/

Trackers

Refresh Leechers : Updated August 18, 2017

1. http://bigfoot1942.sektori.org:6969/announce

2. http://tracker2.wasabii.com.tw:6969/announce

3. http://bt.artvid.ru:6969/announce

4. http://tracker.opentrackr.org/announce

5. http://announce.torrentsmd.com:6969/announce

6. http://tracker.trackerfix.com/announce

7. http://tracker.opentrackr.org/announce

8. udp://explodie.org:6969/announce

9. udp://mgtracker.org:6969/announce

10. udp://asnet.pw:2710/announce

11. udp://tracker.mgtracker.org:2710/announce

12. udp://tracker4.piratux.com:6969/announce

13. udp://tracker.trackerfix.com:80/announce

14. udp://tracker.pomf.se:80/announce

15. udp://tracker.x4w.co:6969/announce

16. udp://castradio.net:6969/announce

17. udp://ipv4.tracker.harry.lu:80/announce

18. udp://inferno.demonoid.ooo:3389/announce

19. udp://tracker.sktorrent.net:6969/announce

20. udp://tracker.blackunicorn.xyz:6969/announce

21. udp://tracker.internetwarriors.net:1337/announce

22. udp://torrent.gresille.org:80/announce

23. udp://public.popcorn-tracker.org:6969/announce

24. udp://p4p.arenabg.ch:1337/announce

25. udp://glotorrents.pw:6969/announce

26. udp://9.rarbg.to:2710/announce

27. udp://tracker.vanitycore.co:6969/announce

28. udp://eddie4.nl:6969/announce

29. udp://tracker.trackerfix.com:80/announce

30. udp://tracker.pirateparty.gr:6969/announce

31. udp://9.rarbg.me:2710/announce

32. udp://tracker.zer0day.to:1337/announce

33. udp://tracker.opentrackr.org:1337/announce

34. udp://tracker.coppersurfer.tk:6969/announce

35. udp://tracker.leechers-paradise.org:6969/announce

36. udp://tracker.zer0day.to:1337/announce

37. udp://public.popcorn-tracker.org:6969/announce

38. udp://tracker.grepler.com:6969/announce

39. udp://ipv4.tracker.harry.lu:80/announce

40. udp://9.rarbg.to:2710/announce

41. udp://9.rarbg.me:2710/announce

42. udp://p4p.arenabg.com:1337/announce

43. udp://p4p.arenabg.ch:1337/announce

44. udp://tracker.opentrackr.org:1337/announce

45. udp://tracker.leechers-paradise.org:6969/announce

46. udp://eddie4.nl:6969/announce

47. udp://shadowshq.yi.org:6969/announce

48. udp://tracker.pirateparty.gr:6969/announce

49. udp://tracker.coppersurfer.tk:6969/announce

Comments

You must log in to add a comment.

Embed Code

Sharing Widget

Related torrents

FILENAME SIZE SEEDS PEERS ADDED UPD
[i] Rififi.1955.iNTERNAL.BDRip.x264-LiBRARiANS 1.25 GB 1 2 1 week 3 days

Top Movies ( auto generated report )

FILENAME SIZE SEEDS PEERS ADDED UPD
[i] Baywatch (2017) [720p] [YTS AG] 896.85 MB 14189 10566 2 days 23 hours
[i] Baywatch (2017) [1080p] [YTS AG] 1.85 GB 11328 9572 2 days 2 days
[i] Security (2017) [720p] [YTS AG] 680.08 MB 3842 803 4 days 2 hours
[i] Security (2017) [1080p] [YTS AG] 1.4 GB 2868 873 4 days 8 hours
[i] Inconceivable (2017) [720p] [YTS AG] 777.71 MB 3109 1605 2 days 1 day
[i] What.Happened.to.Monday.2017.WEBRip.x264-FGT[rarbg] 1.06 GB 2846 1500 3 days 2 days
[i] The Recall (2017) [720p] [YTS AG] 672.5 MB 2550 750 2 days 5 hours
[i] The Recall (2017) [1080p] [YTS AG] 1.39 GB 2469 1416 2 days 2 days
[i] Inconceivable (2017) [1080p] [YTS AG] 1.61 GB 2453 1236 2 days 1 day
[i] Rough Night (2017) [720p] [YTS AG] 737.07 MB 2762 2962 10 hours 8 hours