Lupin III - Walther P38 – Nome In Codice (1997).H264.3xita.Jpn.Sub.ita.iCV-MIRCrew

DOWNLOAD TORRENT DOWNLOAD DOWNLOAD ANONYMOUS

Posted by robbyrs3 •376 on October 4, 2017 in Anime » Cartoons , verified torrent

Size: 1.87 GB , Seeds: 12 , Peers: 3 ( Updated October 18, 2017 - Refresh )

* Download via Magnet Link , * To download files you need a Bittorrent Client , * How to download torrents from Bit Torrent Scene?

Scrape History ( seeds + peers )

Internal Files

Lupin III - Walther P38 (1997).H264.3xita.jpn.sub.ita.iCV-MIRCrew
forced.srt   90 Byte
Lupin III - Walther P38 (1997)..H264.3xita.jpn.sub.ita.iCV-MIRCrew.mkv   1.86 GB
Lupin III - Walther P38 (1997)..H264.3xita.jpn.sub.ita.iCV-MIRCrew.srt   90 Byte
Lupin III - Walther P38 (1997)..H264.3xita.jpn.sub.ita.iCV-MIRCrew_track6_it.idx   38.42 KB
Lupin III - Walther P38 (1997)..H264.3xita.jpn.sub.ita.iCV-MIRCrew_track6_it.sub   3.71 MB
www.icv-crew.org.txt   78 Byte

Hash Code

87ac8294924f13a2858720ac5db3212565b3a1eb

Description

Lupin III - Walther P38 – Nome In Codice (1997).H264.3xita.Jpn.Sub.ita.iCV-MIRCrew

SCREENSHOT

SCREENSHOT
NO FOUND ONLY ORIGINAL RELEASE

SCREENSHOT

My release is always in double track audio italian and Original audio
for select it use VLC or dvd player home
not use wmp

Lupin III - Walther P38 (1997)

ルパン三世 ワルサーP38
(Rupan Sansei - Warusā P38)

Presenti 2 tracce audio ITA vari doppiaggi

SCREENSHOT

SCREENSHOT

SCREENSHOT

Special TV anime
Regia Hiroyuki Yano
Musiche Yūji Ōno
Studio TMS Entertainment
Rete Nippon Television
1ª TV 1º agosto 1997
Aspect ratio 4:3
Durata 93 min
Rete it. Italia 1
1ª TV it. 7 novembre 1999

SCREENSHOT

Doppiaggio
Personaggio Originale Italiano
Lupin III Kan'ichi Kurita Roberto Del Giudice
Daisuke Jigen Kiyoshi Kobayashi Sandro Pellegrini
Fujiko Mine Eiko Masuyama Alessandra Korompay
Goemon Ishikawa Makio Inoue Antonio Palumbo
Ispettore Koichi Zenigata Gorō Naya Rodolfo Bianchi
Ellen Emi Shinohara Beatrice Margiotti
Doc Masane Tsukayama Roberto Certomà
Vicky Tetsuya Iwanaga Laura Latini
Jack Shō Hayami Luciano Roffi

SCREENSHOT

Mentre Lupin tenta una rapina alla villa del vicepresidente degli Stati Uniti, Zenigata riesce quasi a catturarlo. Nel frangente, una banda di assassini assalta la villa e uccide il vicepresidente insieme alle guardie del corpo. Sfruttando la confusione, Lupin cerca di scappare, ma viene messo alle corde da Zenigata: ma da una finestra, una Walther P38, simile a quella usata da Lupin, colpisce Zenigata, lasciandolo apparentemente morto..............

SCREENSHOT

While Lupine tries a robbery at the vice president of the United States, Zenigata almost catches him. In the meantime, a gang of assassins assassinates the villa and kills the vice president along with bodyguards. By exploiting the confusion, Lupine tries to escape, but is put to the strings by Zenigata: but from a window, a Walther P38, similar to that used by Lupine, strikes Zenigata, leaving him apparently dead ........... ...

SCREENSHOT

SCREENSHOT
SCREENSHOT
SCREENSHOT


SCREENSHOT


[spoiler]
General
Unique ID : 199374099791195779617215448546057153666 (0x95FE0E0D6C29CAC2A7878A3FC3006C82)
Complete name : Lupin III - Walther P38 (1997).H264.3xita.jpn.sub.ita.iCV-MIRCrewLupin III - Walther P38 (1997).H264.3xita.jpn.sub.ita.iCV-MIRCrewLupin III - Walther P38 (1997)..H264.3xita.jpn.sub.ita.iCV-MIRCrew.mkv
Format : Matroska
Format version : Version 2
File size : 1.86 GiB
Duration : 1h 32mn
Overall bit rate : 2 896 Kbps
Movie name : Lupin III - Walther P38 (1997).Title1
Encoded date : UTC 2017-09-04 13:26:50
Writing application : DVDFab 9.1.5.7
Writing library : libebml v0.7.8 + libmatroska v0.8.1

Video
ID : 1
Format : AVC
Format/Info : Advanced Video Codec
Format profile : High@L4.1
Format settings, CABAC : Yes
Format settings, ReFrames : 2 frames
Codec ID : V_MPEG4/ISO/AVC
Duration : 1h 32mn
Bit rate : 1 252 Kbps
Width : 720 pixels
Height : 552 pixels
Display aspect ratio : 4:3
Frame rate : 25.000 fps
Color space : YUV
Chroma subsampling : 4:2:0
Bit depth : 8 bits
Scan type : Progressive
Bits/(Pixel*Frame) : 0.126
Stream size : 824 MiB (43%)
Writing library : x264 core
Default : Yes
Forced : No
Color primaries : BT.601-6 525, BT.1358 525, BT.1700 NTSC, SMPTE 170M
Transfer characteristics : BT.709-5, BT.1361
Matrix coefficients : BT.601-6 525, BT.1358 525, BT.1700 NTSC, SMPTE 170M

Audio #1
ID : 2
Format : DTS
Format/Info : Digital Theater Systems
Codec ID : A_DTS
Duration : 1h 32mn
Bit rate mode : Constant
Bit rate : 755 Kbps
Channel(s) : 6 channels
Channel positions : Front: L C R, Side: L R, LFE
Sampling rate : 48.0 KHz
Bit depth : 24 bits
Compression mode : Lossy
Stream size : 497 MiB (26%)
Language : Italian
Default : Yes
Forced : No

Audio #2
ID : 3
Format : AC-3
Format/Info : Audio Coding 3
Mode extension : CM (complete main)
Codec ID : A_AC3
Duration : 1h 32mn
Bit rate mode : Constant
Bit rate : 448 Kbps
Channel(s) : 6 channels
Channel positions : Front: L C R, Side: L R, LFE
Sampling rate : 48.0 KHz
Bit depth : 16 bits
Compression mode : Lossy
Stream size : 295 MiB (15%)
Language : Italian
Default : No
Forced : No

Audio #3
ID : 4
Format : AC-3
Format/Info : Audio Coding 3
Mode extension : CM (complete main)
Codec ID : A_AC3
Duration : 1h 32mn
Bit rate mode : Constant
Bit rate : 192 Kbps
Channel(s) : 2 channels
Channel positions : Front: L R
Sampling rate : 48.0 KHz
Bit depth : 16 bits
Compression mode : Lossy
Stream size : 126 MiB (7%)
Language : Italian
Default : No
Forced : No

Audio #4
ID : 5
Format : AC-3
Format/Info : Audio Coding 3
Mode extension : CM (complete main)
Codec ID : A_AC3
Duration : 1h 32mn
Bit rate mode : Constant
Bit rate : 192 Kbps
Channel(s) : 2 channels
Channel positions : Front: L R
Sampling rate : 48.0 KHz
Bit depth : 16 bits
Compression mode : Lossy
Stream size : 126 MiB (7%)
Language : Japanese
Default : No
Forced : No

Text
ID : 6
Format : VobSub
Codec ID : S_VOBSUB
Codec ID/Info : The same subtitle format used on DVDs
Language : Italian
Default : Yes
Forced : No

Menu
00:00:00.000 : en:(01)00:00:00:000
00:04:55.560 : en:(02)00:04:55:560
00:07:46.280 : en:(03)00:07:46:280
00:14:36.560 : en:(04)00:14:36:560
00:23:30.280 : en:(05)00:23:30:280
00:31:11.960 : en:(06)00:31:11:960
00:38:24.560 : en:(07)00:38:24:560
00:49:17.160 : en:(08)00:49:17:160
00:55:31.760 : en:(09)00:55:31:760
01:02:34.840 : en:(10)01:02:34:840
01:13:47.360 : en:(11)01:13:47:360
01:23:57.800 : en:(12)01:23:57:800
01:28:45.240 : en:(13)01:28:45:240



[/spoiler]

Trackers

Refresh Leechers : Updated October 18, 2017

1. udp://tracker.coppersurfer.tk:6969/announce

2. udp://tracker.opentrackr.org:1337/announce

3. udp://tracker.leechers-paradise.org:6969/announce

4. udp://9.rarbg.com:2710/announce

5. udp://9.rarbg.to:2710/announce

6. udp://9.rarbg.me:2710/announce

7. udp://glotorrents.pw:6969/announce

8. udp://tracker.openbittorrent.com:80/announce

9. udp://tracker.pubt.net:2710/announce

10. udp://tracker.ilibr.org:6969/announce

11. udp://tracker.ilibr.org:80/announce

12. udp://zer0day.to:1337/announce

13. udp://tracker.zer0day.to:1337/announce

14. udp://p4p.arenabg.com:1337/announce

15. udp://p4p.arenabg.ch:1337/announce

16. udp://explodie.org:6969/announce

17. udp://eddie4.nl:6969/announce

Comments

You must log in to add a comment.

Embed Code

Sharing Widget

Top Anime ( auto generated report )

FILENAME SIZE SEEDS PEERS ADDED UPD
[i] [UrbanTbc] No Game No Life Zero (CAM) [480p] mp4 1.12 GB 23 7 1 day 15 hours