Kill Em All 2017 Movies BRRip XviD AAC New Source with Sample ☻rDX☻

DOWNLOAD TORRENT DOWNLOAD DOWNLOAD ANONYMOUS

Posted on May 19, 2017 in Movies » Misc

Size: 706.3 MB , Seeds: 13 , Peers: 4 ( Updated May 25, 2017 - Refresh )

* Download via Magnet Link , * To download files you need a Bittorrent Client , * How to download torrents from Bit Torrent Scene?

Loading...

Scrape History ( seeds + peers )

Internal Files

Kill Em All 2017 Movies BRRip XviD AAC New Source with Sample ☻rDX☻
Sample ~ Kill Em All 2017 Movies BRRip XviD AAC New Source ☻rDX☻.mkv   8.05 MB
Kill Em All 2017 Movies BRRip XviD AAC New Source ☻rDX☻.mkv   697.81 MB

Hash Code

ee1cf463f465dbd76d056184d6f6384b1406404d

Description

Kill Em All 2017 Movies BRRip XviD AAC New Source with Sample ☻rDX☻

===============================================================================================


SCREEN SHOTS:


SCREENSHOT


or


http://postimage.co.nr/2017/5/interest/1.html


Format : Matroska

Format version : Version 4 / Version 2

File size : 698 MiB

Duration : 1 h 35 min

Overall bit rate mode : Constant

Overall bit rate : 1 018 kb/s

Movie name : Kill Em All 2017 Movies BRRip XviD AAC New Source ☻rDX☻


Video

ID : 2

Format : AVC

Format/Info : Advanced Video Codec

Format profile : [email protected]/* */

Format settings, CABAC : Yes

Format settings, ReFrames : 2 frames

Format settings, GOP : M=1, N=12

Codec ID : V_MPEG4/ISO/AVC

Duration : 1 h 35 min

Bit rate mode : Constant

Bit rate : 571 kb/s

Width : 720 pixels

Height : 304 pixels

Display aspect ratio : 2.35:1

Frame rate mode : Constant

Frame rate : 23.976 FPS

Color space : YUV

Chroma subsampling : 4:2:0

Bit depth : 8 bits

Scan type : Progressive

Bits/(Pixel*Frame) : 0.109

Stream size : 377 MiB (54%)

Title : ☻rDX☻

Default : Yes

Forced : No


Audio

ID : 1

Format : AC-3

Format/Info : Audio Coding 3

Mode extension : CM (complete main)

Format settings, Endianness : Big

Codec ID : A_AC3

Duration : 1 h 35 min

Bit rate mode : Constant

Bit rate : 448 kb/s

Channel(s) : 6 channels

Channel positions : Front: L C R, Side: L R, LFE

Sampling rate : 48.0 kHz

Frame rate : 31.250 FPS (1536 spf)

Bit depth : 16 bits

Compression mode : Lossy

Stream size : 307 MiB (44%)

Title : ☻rDX☻

Default : Yes

Forced : No


SCREENSHOT


IMDB : http://www.imdb.com/title/tt5767628

Torrent location

https://www.1337x.to/torrent/2219448/Kill-Em-All-2017-Movies-BRRip-XviD-AAC-New-Source-with-Sample-rDX/

Trackers

Refresh Leechers : Updated May 25, 2017

1. http://explodie.org:6969/announce

2. http://tracker.tfile.me/announce

3. http://bigfoot1942.sektori.org:6969/announce

4. http://tracker2.wasabii.com.tw:6969/announce

5. http://tracker.mg64.net:6881/announce

6. http://bt.artvid.ru:6969/announce

7. http://tracker1.wasabii.com.tw:6969/announce

8. http://open.acgtracker.com:1096/announce

9. http://tracker.opentrackr.org/announce

10. http://mvgroup.org:2710/announce

11. udp://mgtracker.org:6969/announce

12. udp://asnet.pw:2710/announce

13. udp://tracker.mgtracker.org:2710/announce

14. udp://tracker4.piratux.com:6969/announce

15. udp://tracker.trackerfix.com:80/announce

16. udp://tracker.pomf.se:80/announce

17. udp://torrent.gresille.org:80/announce

18. udp://p4p.arenabg.com:1337

19. udp://ipv4.tracker.harry.lu:80/announce

20. udp://inferno.demonoid.ooo:3389/announce

21. udp://tracker.blackunicorn.xyz:6969/announce

22. udp://tracker.internetwarriors.net:1337/announce

23. udp://tracker.openbittorrent.com:80/announce

24. udp://eddie4.nl:6969/announce

25. udp://tracker.leechers-paradise.org:6969/announce

26. udp://tracker.opentrackr.org:1337/announce

27. udp://tracker.zer0day.to:1337/announce

28. udp://p4p.arenabg.ch:1337/announce

29. udp://tracker.coppersurfer.tk:6969/announce

30. udp://9.rarbg.to:2710/announce

31. udp://9.rarbg.com:2710/announce

32. udp://9.rarbg.me:2710/announce

33. udp://open.demonii.com:1337

34. udp://glotorrents.pw:6969/announce

35. udp://tracker.publicbt.com:80/announce

36. http://tracker.publicbt.com/announce

37. udp://coppersurfer.tk:6969/announce

38. udp://tracker.leechers-paradise.org:6969/announce

39. http://tracker.btcake.com/announce

40. http://tracker.aletorrenty.pl:2710/announce

41. http://mgtracker.org:2710/announce

42. udp://explodie.org:6969/announce

43. udp://tracker.pomf.se:80/announce

44. http://retracker.krs-ix.ru/announce

45. udp://glotorrents.pw:6969/announce

46. udp://tracker.coppersurfer.tk:6969/announce

Comments

You must log in to add a comment.

Embed Code

Sharing Widget

Related torrents

FILENAME SIZE SEEDS PEERS ADDED UPD
[i] Kill'em All (2017) [720p] [YTS AG] 711.76 MB 1200 353 1 week 3 days
[i] Kill'em All (2017) [1080p] [YTS AG] 1.46 GB 752 183 1 week 3 days
[i] Born.To.Kill.2017.S01E02.HDTV.x264-MTB 230.79 MB 95 13 1 month 2 weeks
[i] Born.To.Kill.2017.S01E03.HDTV.x264-MTB 196.04 MB 90 5 3 weeks 1 week
[i] Born.To.Kill.2017.S01E01.HDTV.x264-MTB 262.66 MB 79 7 1 month 4 days
[i] Plants You Can't Kill - 101 Easy-to-Grow Species for Beginning Gardeners (2017) (Epub) Gooner 46.08 MB 59 2 1 month 2 weeks
[i] Born.To.Kill.2017.S01E04.HDTV.x264-MTB 224.41 MB 37 6 2 weeks 3 days
[i] Born to Kill S01 Mini-Series (2017) x264 RB58 2.02 GB 28 11 2 weeks 3 days
[i] Kill Em All 2017 BRRip XViD-juggs
posted by juggs in Movies - Action
704.64 MB 25 10 1 week 4 days
[i] Warning.This.Drug.May.Kill.You.2017.HDTV.x264-aAF[ettv] 294.5 MB 18 5 3 weeks 1 week

Top Movies ( auto generated report )

FILENAME SIZE SEEDS PEERS ADDED UPD
[i] A Cure for Wellness (2016) [720p] [YTS AG] 1.07 GB 4250 2527 2 days 16 hours
[i] T2 Trainspotting (2017) [720p] [YTS AG] 860.23 MB 3476 1138 3 days 16 hours
[i] Colossal.2016.1080p.WEB-DL.AAC2.0.H264-FGT 3.5 GB 2217 850 3 days 16 hours
[i] Black.Butterfly.2017.1080p.WEB-DL.DD5.1.H264-FGT 3.22 GB 1672 764 3 days 16 hours
[i] Voice from the Stone (2017) [720p] [YTS AG] 669.8 MB 1425 969 1 day 15 hours
[i] Swallows and Amazons (2016) [720p] [YTS AG] 706.61 MB 1296 864 1 day 15 hours
[i] McLaren (2016) [1080p] [YTS AG] 1.43 GB 1295 446 2 days 16 hours
[i] McLaren (2016) [720p] [YTS AG] 689.56 MB 1143 499 2 days 16 hours
[i] The Last Word (2017) [720p] [YTS AG] 782.53 MB 1450 997 1 day 15 hours
[i] The Ticket (2016) [720p] [YTS AG] 728.18 MB 1069 600 2 days 16 hours