It's a Rumic World OVA 01-03 [720p - H264 - Jap Aac - SoftSub Ita][TNT Village]

DOWNLOAD TORRENT DOWNLOAD DOWNLOAD ANONYMOUS

Posted by akir_ •64 on June 30, 2017 in Anime » Misc , verified torrent

Size: 1.97 GB , Seeds: 5 , Peers: 0 ( Updated August 3, 2017 - Refresh )

* Download via Magnet Link , * To download files you need a Bittorrent Client , * How to download torrents from Bit Torrent Scene?

Scrape History ( seeds + peers )

Internal Files

It's a Rumic World - OVA 01-03 [Blu-Ray Box Completo]
It's a Rumic World Blu-ray Disc Eizou Tokuten - Sunday CM Theater ~ Kyoukai no RINNE hen (BD H264 1920x1080 24fps FLAC).mkv   27.46 MB
It's a Rumic World Blu-ray Disc Main Menus (BD H264 1920x1080 24fps).mkv   7.62 MB
It's a Rumic World Blu-ray Disc Eizou Tokuten - Three Series Characters Opening (BD H264 1920x1080 24fps FLAC).srt   3.02 KB
It's a Rumic World Blu-ray Disc Eizou Tokuten - Three Series Characters Opening (BD H264 1920x1080 24fps FLAC).mkv   153.65 MB
It's a Rumic World - Inuyasha - Kuroi Tessaiga_back.jpg   156.66 KB
It's a Rumic World - Inuyasha - Kuroi Tessaiga_front.jpg   231.64 KB
It's a Rumic World - Inuyasha - Kuroi Tessaiga (BD H264 1280x720 24fps AAC).srt   24.98 KB
It's a Rumic World - Inuyasha - Kuroi Tessaiga (BD H264 1280x720 24fps AAC).mp4   599.06 MB
It's a Rumic World - Ranma - Akumu! Shunmin kou (BD H264 1280x720 24fps AAC).srt   31.77 KB
It's a Rumic World - Ranma - Akumu! Shunmin kou_front.jpg   209.72 KB
It's a Rumic World - Ranma - Akumu! Shunmin kou (BD H264 1280x720 24fps AAC).mp4   539.01 MB
It's a Rumic World - Ranma - Akumu! Shunmin kou_back.jpg   151.05 KB
It's a Rumic World - Lamù - The Shougaibutsu Suieitaikai_back.jpg   153.39 KB
It's a Rumic World - Lamù - The Shougaibutsu Suieitaikai (BD H264 1280x720 24fps AAC).mp4   692.33 MB
It's a Rumic World - Lamù - The Shougaibutsu Suieitaikai (BD H264 1280x720 24fps AAC).srt   28.45 KB
It's a Rumic World - Lamù - The Shougaibutsu Suieitaikai_front.jpg   180.76 KB

Hash Code

a1e73a35cc096483763f92f74343456030511238

Description

It's a Rumic World OVA 01-03 [720p - H264 - Jap Aac - SoftSub Ita][TNT Village]

http://forum.tntvillage.scambioetico.org/index.php?showtopic=567089


SCREENSHOT


.: Information :.

Original Title: It's a Rumic World: 50th Anniversary Weekly Shonen Sunday
Type: OVA
Season: Summer 2008
Gender: Comedy
Episodes: 1 special + 3 OVA


SCREENSHOT


.: Trama :.

I personaggi di Ranma ½, Lamù ed Inuyasha tutti riuniti in un breve episodio per introdurre il 50° anniversario Weekly Shonen Sunday, che celebra il lavoro della mangaka Rumiko Takahashi.
A seguire 3 OVA, rispettivamente uno per Lamù, uno per Ranma e uno per Inuyasha.


.: Plot :.

The characters from Ranma ½, Lum, and Inuyasha all gather together in a short crossover to introduce the 50th Anniversary Weekly Shonen Sunday "Rumic World" Museum opening, celebrating Rumiko Takahashi's manga work.
Subsequently 3 OVA, respectively one for Lum, one for Ranma ½ and one for Inuyasha.


Lum - The Shougaibutsu Suieitaikai

Ranma - Akumu! Shunmin kou

Inuyasha - Kuroi Tessaiga


.: Screenshot :.

SCREENSHOT


.: Specification of the video :.

General
Complete name : It's a Rumic World - Lamù - The Shougaibutsu Suieitaikai (BD H264 1280x720 24fps AAC).mp4
Format : MPEG-4
Format profile : Base Media
Codec ID : isom (isom)
File size : 692 MiB
Duration : 27 min 38 s
Overall bit rate mode : Variable
Overall bit rate : 3 501 kb/s
Encoded date : UTC 2010-10-21 06:12:32
Tagged date : UTC 2010-10-21 06:12:32
Writing application : Yamb 2.1.0.0 [http://yamb.unite-video.com]

Video
ID : 1
Format : AVC
Format/Info : Advanced Video Codec
Format profile : High@L4.1
Format settings, CABAC : Yes
Format settings, ReFrames : 4 frames
Codec ID : avc1
Codec ID/Info : Advanced Video Coding
Duration : 27 min 38 s
Bit rate : 3 282 kb/s
Maximum bit rate : 20.4 Mb/s
Width : 1 280 pixels
Height : 720 pixels
Display aspect ratio : 16:9
Frame rate mode : Constant
Frame rate : 23.976 (24000/1001) FPS
Color space : YUV
Chroma subsampling : 4:2:0
Bit depth : 8 bits
Scan type : Progressive
Bits/(Pixel*Frame) : 0.149
Stream size : 649 MiB (94%)
Title : [QTS] It's a Rumic World Urusei Yatsura ~ The Shogaibutsu Suiei Taikai_BD
Writing library : x264 core 107 r1745 4785e8e
Encoding settings : cabac=1 / ref=4 / deblock=1:0:0 / analyse=0x3:0x133 / me=umh / subme=10 / psy=1 / psy_rd=0.40:0.00 / mixed_ref=1 / me_range=24 / chroma_me=1 / trellis=2 / 8x8dct=1 / cqm=0 / deadzone=21,11 / fast_pskip=0 / chroma_qp_offset=-2 / threads=6 / sliced_threads=0 / nr=0 / decimate=1 / interlaced=0 / constrained_intra=0 / bframes=8 / b_pyramid=2 / b_adapt=2 / b_bias=0 / direct=3 / weightb=1 / open_gop=0 / weightp=2 / keyint=240 / keyint_min=1 / scenecut=75 / intra_refresh=0 / rc=crf / mbtree=0 / crf=16.0 / qcomp=0.70 / qpmin=2 / qpmax=30 / qpstep=4 / ip_ratio=1.40 / pb_ratio=1.30 / aq=2:1.00
Language : Japanese
Encoded date : UTC 2010-10-21 03:48:16
Tagged date : UTC 2010-10-21 06:12:51

Audio
ID : 2
Format : AAC
Format/Info : Advanced Audio Codec
Format profile : LC
Codec ID : 40
Duration : 27 min 38 s
Bit rate mode : Variable
Bit rate : 215 kb/s
Maximum bit rate : 258 kb/s
Channel(s) : 2 channels
Channel positions : Front: L R
Sampling rate : 48.0 kHz
Frame rate : 46.875 FPS (1024 spf)
Compression mode : Lossy
Stream size : 42.6 MiB (6%)
Title : Japanese Audio 2.0ch
Language : Japanese
Encoded date : UTC 2010-10-21 06:12:49
Tagged date : UTC 2010-10-21 06:12:51

Trackers

Refresh Leechers : Updated August 3, 2017

1. udp://tracker.tntvillage.scambioetico.org:2710/announce

2. http://nyaa.tracker.wf:7777/announce

3. udp://tracker.coppersurfer.tk:6969/announce

4. udp://tracker.leechers-paradise.org:6969/announce

5. udp://IPv6.leechers-paradise.org:6969/announce

6. udp://tracker.internetwarriors.net:1337/announce

7. udp://tracker.mg64.net:2710/announce

8. udp://tracker.openbittorrent.com:80/announce

9. udp://9.rarbg.to:2710/announce

10. udp://tracker.zer0day.to:1337/announce

11. udp://tracker.opentrackr.org:1337/announce

12. udp://inferno.demonoid.pw:3397/announce

Comments

You must log in to add a comment.

Embed Code

Sharing Widget

Top Anime ( auto generated report )

FILENAME SIZE SEEDS PEERS ADDED UPD
[i] Lupin III - L'elusività della nebbia (2007).H264.Italian.jpn.Ac3.5.1.sub.ita.iCV-MIRCrew 1.32 GB 6 3 5 days 4 days
[i] Lupin III - Un diamante per sempre (2003).H264.Italian.jpn.Ac3.sub.ita.iCV-MIRCrew 1.03 GB 4 1 5 days 4 days