Female Fight Club.2016.HDRip.XviD.AC3-EVO

DOWNLOAD TORRENT DOWNLOAD DOWNLOAD ANONYMOUS

Posted on August 13, 2017 in Movies » Misc , verified torrent

Size: 1.35 GB , Seeds: 3 , Peers: 1 ( Updated August 19, 2017 - Refresh )

* Download via Magnet Link , * To download files you need a Bittorrent Client , * How to download torrents from Bit Torrent Scene?

Scrape History ( seeds + peers )

Internal Files

Female Fight Club.2016.HDRip.XviD.AC3-EVO
Female Fight Club.2016.HDRip.XviD.AC3-EVO.avi   1.29 GB
Female Fight Club.2016.HDRip.XviD.AC3-EVO.nfo   0 Byte
sample.avi   57.4 MB

Hash Code

33cd0b28c0e2eed462d31710097da80b825d8f7a

Description

Female Fight Club.2016.HDRip.XviD.AC3-EVO

ImDb: http://www.imdb.com/title/tt2095042

SCREENSHOT

Complete name : Female Fight Club.2016.HDRip.XviD.AC3-EVO.avi
Format : AVI
Format/Info : Audio Video Interleave
File size : 1.29 GiB
Duration : 1 h 30 min
Overall bit rate : 2 051 kb/s
Writing library : VirtualDub build 32593/release

Video
ID : 0
Format : MPEG-4 Visual
Format profile : Advanced [email protected]/* */
Format settings, BVOP : 2
Format settings, QPel : No
Format settings, GMC : No warppoints
Format settings, Matrix : Default (H.263)
Muxing mode : Packed bitstream
Codec ID : XVID
Codec ID/Hint : XviD
Duration : 1 h 30 min
Bit rate : 1 658 kb/s
Width : 720 pixels
Height : 304 pixels
Display aspect ratio : 2.35:1
Frame rate : 23.976 (24000/1001) FPS
Color space : YUV
Chroma subsampling : 4:2:0
Bit depth : 8 bits
Scan type : Progressive
Compression mode : Lossy
Bits/(Pixel*Frame) : 0.316
Stream size : 1.04 GiB (81%)
Writing library : XviD 66

Audio
ID : 1
Format : AC-3
Format/Info : Audio Coding 3
Format settings, Endianness : Big
Codec ID : 2000
Duration : 1 h 30 min
Bit rate mode : Constant
Bit rate : 384 kb/s
Channel(s) : 6 channels
Channel positions : Front: L C R, Side: L R, LFE
Sampling rate : 48.0 kHz
Frame rate : 31.250 FPS (1536 spf)
Bit depth : 16 bits
Compression mode : Lossy
Stream size : 248 MiB (19%)
Alignment : Aligned on interleaves
Interleave, duration : 42 ms (1.00 video frame)
Interleave, preload duration : 512 ms
Service kind : Complete Main

SCREENSHOT

SCREENSHOT

Click To View Screenshot

Click To View Screenshot

Click To View Screenshot

Torrent location

https://www.1337x.to/torrent/2372827/Female-Fight-Club-2016-HDRip-XviD-AC3-EVO/

Trackers

Refresh Leechers : Updated August 19, 2017

1. http://bigfoot1942.sektori.org:6969/announce

2. http://tracker2.wasabii.com.tw:6969/announce

3. http://bt.artvid.ru:6969/announce

4. http://tracker.opentrackr.org/announce

5. http://announce.torrentsmd.com:6969/announce

6. http://tracker.trackerfix.com/announce

7. http://tracker.opentrackr.org/announce

8. udp://explodie.org:6969/announce

9. udp://mgtracker.org:6969/announce

10. udp://asnet.pw:2710/announce

11. udp://tracker.mgtracker.org:2710/announce

12. udp://tracker4.piratux.com:6969/announce

13. udp://tracker.trackerfix.com:80/announce

14. udp://tracker.pomf.se:80/announce

15. udp://tracker.x4w.co:6969/announce

16. udp://castradio.net:6969/announce

17. udp://ipv4.tracker.harry.lu:80/announce

18. udp://inferno.demonoid.ooo:3389/announce

19. udp://tracker.sktorrent.net:6969/announce

20. udp://tracker.blackunicorn.xyz:6969/announce

21. udp://tracker.internetwarriors.net:1337/announce

22. udp://torrent.gresille.org:80/announce

23. udp://public.popcorn-tracker.org:6969/announce

24. udp://p4p.arenabg.ch:1337/announce

25. udp://glotorrents.pw:6969/announce

26. udp://9.rarbg.to:2710/announce

27. udp://tracker.vanitycore.co:6969/announce

28. udp://eddie4.nl:6969/announce

29. udp://tracker.trackerfix.com:80/announce

30. udp://tracker.pirateparty.gr:6969/announce

31. udp://9.rarbg.me:2710/announce

32. udp://tracker.zer0day.to:1337/announce

33. udp://tracker.opentrackr.org:1337/announce

34. udp://tracker.coppersurfer.tk:6969/announce

35. udp://tracker.leechers-paradise.org:6969/announce

36. udp://tracker.zer0day.to:1337/announce

37. udp://public.popcorn-tracker.org:6969/announce

38. udp://tracker.grepler.com:6969/announce

39. udp://ipv4.tracker.harry.lu:80/announce

40. udp://9.rarbg.to:2710/announce

41. udp://9.rarbg.me:2710/announce

42. udp://p4p.arenabg.com:1337/announce

43. udp://p4p.arenabg.ch:1337/announce

44. udp://tracker.opentrackr.org:1337/announce

45. udp://tracker.leechers-paradise.org:6969/announce

46. udp://eddie4.nl:6969/announce

47. udp://shadowshq.yi.org:6969/announce

48. udp://tracker.pirateparty.gr:6969/announce

49. udp://tracker.coppersurfer.tk:6969/announce

Comments

You must log in to add a comment.

Embed Code

Sharing Widget

Related torrents

FILENAME SIZE SEEDS PEERS ADDED UPD
[i] Female.Fight.Club.2016.WEB-DL.x264-FGT 792.15 MB 102 26 1 week 2 days
[i] Female.Fight.Club.2016.WEB-DL.XviD.MP3-FGT [rarbg] 1.04 GB 41 9 1 week 2 days
[i] Female.Fight.Club.2016.WEB-DL.XviD.AC3-FGT 1.15 GB 18 1 1 week 2 days
[i] Female Fight Club.2016.1080p.WEB-DL.H264.AC3-EVO 3.12 GB 2 0 1 week 2 days
[i]
[i]
Female.Fight.Club.2016.HDRip.XviD.AC3-iFT
1.49 GB 2 0 1 week 2 days

Top Movies ( auto generated report )

FILENAME SIZE SEEDS PEERS ADDED UPD
[i] Baywatch (2017) [720p] [YTS AG] 896.85 MB 14189 10566 2 days 23 hours
[i] Baywatch (2017) [1080p] [YTS AG] 1.85 GB 11328 9572 2 days 2 days
[i] Security (2017) [720p] [YTS AG] 680.08 MB 3842 803 4 days 3 hours
[i] Security (2017) [1080p] [YTS AG] 1.4 GB 2868 873 4 days 8 hours
[i] Inconceivable (2017) [720p] [YTS AG] 777.71 MB 3109 1605 2 days 1 day
[i] What.Happened.to.Monday.2017.WEBRip.x264-FGT[rarbg] 1.06 GB 2846 1500 3 days 2 days
[i] The Recall (2017) [720p] [YTS AG] 672.5 MB 2550 750 2 days 5 hours
[i] The Recall (2017) [1080p] [YTS AG] 1.39 GB 2469 1416 2 days 2 days
[i] Inconceivable (2017) [1080p] [YTS AG] 1.61 GB 2453 1236 2 days 1 day
[i] Rough Night (2017) [720p] [YTS AG] 737.07 MB 2762 2962 10 hours 8 hours