Doubt.S01E13.iNTERNAL.720p.WEB.x264-BAMBOOZLE

DOWNLOAD TORRENT DOWNLOAD DOWNLOAD ANONYMOUS

Posted on August 13, 2017 in Series » Misc , verified torrent

Size: 1.08 GB , Seeds: 6 , Peers: 4 ( Updated August 19, 2017 - Refresh )

* Download via Magnet Link , * To download files you need a Bittorrent Client , * How to download torrents from Bit Torrent Scene?

Scrape History ( seeds + peers )

Internal Files

Doubt.S01E13.iNTERNAL.720p.WEB.x264-BAMBOOZLE
doubt.s01e13.internal.720p.web.x264-bamboozle.mkv   1.08 GB
doubt.s01e13.internal.720p.web.x264-bamboozle.nfo   56 Byte

Hash Code

36d83739802513ff006ecc58469c287663a78e4a

Description

Doubt.S01E13.iNTERNAL.720p.WEB.x264-BAMBOOZLE

SCREENSHOT

Complete name : doubt.s01e13.internal.720p.web.x264-bamboozle.mkv
Format : Matroska
Format version : Version 4 / Version 2
File size : 1.08 GiB
Duration : 43 min 26 s
Overall bit rate : 3 564 kb/s
Encoded date : UTC 2017-08-13 05:07:56
Writing application : mkvmerge v8.8.0 ('Wind at my back') 64bit
Writing library : libebml v1.3.3 + libmatroska v1.4.4

Video
ID : 1
Format : AVC
Format/Info : Advanced Video Codec
Format profile : [email protected]/* */
Format settings, CABAC : Yes
Format settings, ReFrames : 4 frames
Format settings, GOP : M=4, N=24
Codec ID : V_MPEG4/ISO/AVC
Duration : 43 min 26 s
Bit rate : 3 468 kb/s
Width : 1 280 pixels
Height : 720 pixels
Display aspect ratio : 16:9
Frame rate mode : Variable
Frame rate : 23.976 FPS
Color space : YUV
Chroma subsampling : 4:2:0
Bit depth : 8 bits
Scan type : Progressive
Bits/(Pixel*Frame) : 0.157
Stream size : 1.04 GiB (96%)
Writing library : x264 core 148
Encoding settings : cabac=1 / ref=3 / deblock=1:0:0 / analyse=0x1:0x111 / me=hex / subme=7 / psy=1 / psy_rd=1.00:0.00 / mixed_ref=1 / me_range=16 / chroma_me=1 / trellis=1 / 8x8dct=0 / cqm=0 / deadzone=21,11 / fast_pskip=1 / chroma_qp_offset=-2 / threads=22 / lookahead_threads=3 / sliced_threads=0 / nr=0 / decimate=1 / interlaced=0 / bluray_compat=0 / constrained_intra=0 / bframes=3 / b_pyramid=2 / b_adapt=1 / b_bias=0 / direct=1 / weightb=1 / open_gop=0 / weightp=2 / keyint=24 / keyint_min=2 / scenecut=0 / intra_refresh=0 / rc_lookahead=24 / rc=abr / mbtree=1 / bitrate=3468 / ratetol=1.0 / qcomp=0.60 / qpmin=0 / qpmax=69 / qpstep=4 / vbv_maxrate=6936 / vbv_bufsize=6936 / nal_hrd=none / filler=0 / ip_ratio=1.40 / aq=1:1.00
Default : Yes
Forced : No

Audio
ID : 2
Format : AAC
Format/Info : Advanced Audio Codec
Format profile : LC
Codec ID : A_AAC
Duration : 43 min 26 s
Bit rate : 126 kb/s
Channel(s) : 2 channels
Channel positions : Front: L R
Sampling rate : 44.1 kHz
Frame rate : 43.066 FPS (1024 spf)
Compression mode : Lossy
Stream size : 39.0 MiB (4%)
Default : Yes
Forced : No

SCREENSHOT

SCREENSHOT

Click To View Screenshot

Click To View Screenshot

Click To View Screenshot

Torrent location

https://www.1337x.to/torrent/2373518/Doubt-S01E13-iNTERNAL-720p-WEB-x264-BAMBOOZLE/

Trackers

Refresh Leechers : Updated August 19, 2017

1. http://bigfoot1942.sektori.org:6969/announce

2. http://tracker2.wasabii.com.tw:6969/announce

3. http://bt.artvid.ru:6969/announce

4. http://tracker.opentrackr.org/announce

5. http://announce.torrentsmd.com:6969/announce

6. http://tracker.trackerfix.com/announce

7. http://tracker.opentrackr.org/announce

8. udp://explodie.org:6969/announce

9. udp://mgtracker.org:6969/announce

10. udp://asnet.pw:2710/announce

11. udp://tracker.mgtracker.org:2710/announce

12. udp://tracker4.piratux.com:6969/announce

13. udp://tracker.trackerfix.com:80/announce

14. udp://tracker.pomf.se:80/announce

15. udp://tracker.x4w.co:6969/announce

16. udp://castradio.net:6969/announce

17. udp://ipv4.tracker.harry.lu:80/announce

18. udp://inferno.demonoid.ooo:3389/announce

19. udp://tracker.sktorrent.net:6969/announce

20. udp://tracker.blackunicorn.xyz:6969/announce

21. udp://tracker.internetwarriors.net:1337/announce

22. udp://torrent.gresille.org:80/announce

23. udp://public.popcorn-tracker.org:6969/announce

24. udp://p4p.arenabg.ch:1337/announce

25. udp://glotorrents.pw:6969/announce

26. udp://9.rarbg.to:2710/announce

27. udp://tracker.vanitycore.co:6969/announce

28. udp://eddie4.nl:6969/announce

29. udp://tracker.trackerfix.com:80/announce

30. udp://tracker.pirateparty.gr:6969/announce

31. udp://9.rarbg.me:2710/announce

32. udp://tracker.zer0day.to:1337/announce

33. udp://tracker.opentrackr.org:1337/announce

34. udp://tracker.coppersurfer.tk:6969/announce

35. udp://tracker.leechers-paradise.org:6969/announce

36. udp://tracker.zer0day.to:1337/announce

37. udp://public.popcorn-tracker.org:6969/announce

38. udp://tracker.grepler.com:6969/announce

39. udp://ipv4.tracker.harry.lu:80/announce

40. udp://9.rarbg.to:2710/announce

41. udp://9.rarbg.me:2710/announce

42. udp://p4p.arenabg.com:1337/announce

43. udp://p4p.arenabg.ch:1337/announce

44. udp://tracker.opentrackr.org:1337/announce

45. udp://tracker.leechers-paradise.org:6969/announce

46. udp://eddie4.nl:6969/announce

47. udp://shadowshq.yi.org:6969/announce

48. udp://tracker.pirateparty.gr:6969/announce

49. udp://tracker.coppersurfer.tk:6969/announce

Comments

You must log in to add a comment.

Embed Code

Sharing Widget

Related torrents

FILENAME SIZE SEEDS PEERS ADDED UPD
[i] Doubt.S01E13.iNTERNAL.720p.HEVC.x265-MeGusta 261.82 MB 3 3 1 week 3 days

Top Series ( auto generated report )

FILENAME SIZE SEEDS PEERS ADDED UPD
[i] Game.of.Thrones.S07E06.720p.WEB.h264-TBS[eztv].mkv 1.47 GB 20718 10960 1 day 1 day
[i] Game.of.Thrones.S07E06.Beyond.the.Wall.1080p.AMZN.WEB-DL.DDP5.1.H.264-GoT[ettv] 4.74 GB 5781 2790 1 day 1 day
[i] Marvels.The.Defenders.S01E01.WEB.x264-STRiFE[eztv].mkv 410.82 MB 4258 1387 4 days 3 days
[i] Game.of.Thrones.S07E06.PROPER.HDTV.x264-SVA[ettv] 494.5 MB 3564 902 1 day 23 hours
[i] Marvels.The.Defenders.S01E02.WEB.x264-STRiFE[eztv].mkv 301.16 MB 3433 976 4 days 3 days
[i] Suits.S07E06.720p.HDTV.x264-AVS [rarbg] 666.82 MB 3055 907 5 days 4 days
[i] The.Last.Ship.S04E01.HDTV.x264-LOL[eztv].mkv 332.29 MB 2995 650 1 day 1 day
[i] Game.of.Thrones.S07E06.PROPER.720p.HDTV.x264-AVS[eztv].mkv 1.47 GB 2276 2072 1 day 12 hours
[i] Marvels.The.Defenders.S01.COMPLETE.720p.WEBRip.x264 3.87 GB 2405 2914 4 days 3 days
[i] Marvels.The.Defenders.S01E04.WEB.x264-STRiFE[eztv].mkv 237.29 MB 2034 566 4 days 3 days