Doubt.S01E12.720p.HDTV.x264-KILLERS

DOWNLOAD TORRENT DOWNLOAD DOWNLOAD ANONYMOUS

Posted on August 13, 2017 in Series » Misc , verified torrent

Size: 829 MB , Seeds: 6 , Peers: 4 ( Updated October 16, 2017 - Refresh )

* Download via Magnet Link , * To download files you need a Bittorrent Client , * How to download torrents from Bit Torrent Scene?

Scrape History ( seeds + peers )

Internal Files

Doubt.S01E12.720p.HDTV.x264-KILLERS
Doubt.S01E12.720p.HDTV.x264-KILLERS.mkv   825.41 MB
doubt.s01e12.720p.hdtv.x264-killers.nfo   10.61 KB

Hash Code

3361106fc5aaf9bdafd00e8c7e5be14d3855b7a8

Description

Doubt.S01E12.720p.HDTV.x264-KILLERS

SCREENSHOT

Complete name : Doubt.S01E12.720p.HDTV.x264-KILLERS.mkv
Format : Matroska
Format version : Version 4 / Version 2
File size : 825 MiB
Duration : 42 min 25 s
Overall bit rate : 2 720 kb/s
Encoded date : UTC 2017-08-13 03:32:22
Writing application : mkvmerge v9.0.1 ('Obstacles') 64bit
Writing library : libebml v1.3.3 + libmatroska v1.4.4

Video
ID : 1
Format : AVC
Format/Info : Advanced Video Codec
Format profile : [email protected]/* */
Format settings, CABAC : Yes
Format settings, ReFrames : 5 frames
Codec ID : V_MPEG4/ISO/AVC
Duration : 42 min 25 s
Bit rate : 2 218 kb/s
Width : 1 280 pixels
Height : 720 pixels
Display aspect ratio : 16:9
Frame rate mode : Constant
Frame rate : 23.976 (24000/1001) FPS
Color space : YUV
Chroma subsampling : 4:2:0
Bit depth : 8 bits
Scan type : Progressive
Bits/(Pixel*Frame) : 0.100
Stream size : 673 MiB (82%)
Writing library : x264 core 150 r2829 d1fe6fd
Encoding settings : cabac=1 / ref=5 / deblock=1:0:0 / analyse=0x3:0x113 / me=hex / subme=8 / psy=1 / psy_rd=1.00:0.00 / mixed_ref=1 / me_range=16 / chroma_me=1 / trellis=2 / 8x8dct=1 / cqm=0 / deadzone=21,11 / fast_pskip=1 / chroma_qp_offset=-2 / threads=22 / lookahead_threads=3 / sliced_threads=0 / nr=0 / decimate=1 / interlaced=0 / bluray_compat=0 / constrained_intra=0 / bframes=3 / b_pyramid=2 / b_adapt=1 / b_bias=0 / direct=3 / weightb=1 / open_gop=0 / weightp=2 / keyint=250 / keyint_min=23 / scenecut=40 / intra_refresh=0 / rc_lookahead=50 / rc=crf / mbtree=1 / crf=18.0 / qcomp=0.60 / qpmin=0 / qpmax=69 / qpstep=4 / ip_ratio=1.40 / aq=1:1.00
Default : Yes
Forced : No
Color range : Limited
Matrix coefficients : BT.709

Audio
ID : 2
Format : AC-3
Format/Info : Audio Coding 3
Format settings, Endianness : Big
Codec ID : A_AC3
Duration : 42 min 25 s
Bit rate mode : Constant
Bit rate : 448 kb/s
Channel(s) : 6 channels
Channel positions : Front: L C R, Side: L R, LFE
Sampling rate : 48.0 kHz
Frame rate : 31.250 FPS (1536 spf)
Bit depth : 16 bits
Compression mode : Lossy
Stream size : 136 MiB (16%)
Service kind : Complete Main
Default : Yes
Forced : No

SCREENSHOT

SCREENSHOT

Click To View Screenshot

Click To View Screenshot

Click To View Screenshot

Torrent location

https://www.1337x.to/torrent/2373300/Doubt-S01E12-720p-HDTV-x264-KILLERS/

Trackers

Refresh Leechers : Updated October 16, 2017

1. http://bigfoot1942.sektori.org:6969/announce

2. http://tracker2.wasabii.com.tw:6969/announce

3. http://bt.artvid.ru:6969/announce

4. http://tracker.opentrackr.org/announce

5. http://announce.torrentsmd.com:6969/announce

6. http://tracker.trackerfix.com/announce

7. http://tracker.opentrackr.org/announce

8. udp://explodie.org:6969/announce

9. udp://mgtracker.org:6969/announce

10. udp://asnet.pw:2710/announce

11. udp://tracker.mgtracker.org:2710/announce

12. udp://tracker4.piratux.com:6969/announce

13. udp://tracker.trackerfix.com:80/announce

14. udp://tracker.pomf.se:80/announce

15. udp://tracker.x4w.co:6969/announce

16. udp://castradio.net:6969/announce

17. udp://ipv4.tracker.harry.lu:80/announce

18. udp://inferno.demonoid.ooo:3389/announce

19. udp://tracker.sktorrent.net:6969/announce

20. udp://tracker.blackunicorn.xyz:6969/announce

21. udp://tracker.internetwarriors.net:1337/announce

22. udp://torrent.gresille.org:80/announce

23. udp://public.popcorn-tracker.org:6969/announce

24. udp://p4p.arenabg.ch:1337/announce

25. udp://glotorrents.pw:6969/announce

26. udp://9.rarbg.to:2710/announce

27. udp://tracker.vanitycore.co:6969/announce

28. udp://eddie4.nl:6969/announce

29. udp://tracker.trackerfix.com:80/announce

30. udp://tracker.pirateparty.gr:6969/announce

31. udp://9.rarbg.me:2710/announce

32. udp://tracker.zer0day.to:1337/announce

33. udp://tracker.opentrackr.org:1337/announce

34. udp://tracker.coppersurfer.tk:6969/announce

35. udp://tracker.leechers-paradise.org:6969/announce

36. udp://tracker.zer0day.to:1337/announce

37. udp://public.popcorn-tracker.org:6969/announce

38. udp://tracker.grepler.com:6969/announce

39. udp://ipv4.tracker.harry.lu:80/announce

40. udp://9.rarbg.to:2710/announce

41. udp://9.rarbg.me:2710/announce

42. udp://p4p.arenabg.com:1337/announce

43. udp://p4p.arenabg.ch:1337/announce

44. udp://tracker.opentrackr.org:1337/announce

45. udp://tracker.leechers-paradise.org:6969/announce

46. udp://eddie4.nl:6969/announce

47. udp://shadowshq.yi.org:6969/announce

48. udp://tracker.pirateparty.gr:6969/announce

49. udp://tracker.coppersurfer.tk:6969/announce

Comments

You must log in to add a comment.

Embed Code

Sharing Widget

Related torrents

FILENAME SIZE SEEDS PEERS ADDED UPD
[i] Doubt.S01E12.720p.HDTV.x264-KILLERS [rarbg] 825.57 MB 5 5 2 months 1 day
[i] Doubt.S01E12.720p.HDTV.x264-KILLERS 829.75 MB 4 1 2 months 1 day

Top Series ( auto generated report )

FILENAME SIZE SEEDS PEERS ADDED UPD
[i] Arrow.S06E01.HDTV.x264-LOL[eztv].mkv 294.04 MB 6376 1561 3 days 2 days
[i] Star.Trek.Discovery.S01E05.WEBRip.x264-TBS[ettv]
Series - Misc , Quality: Audio 10/10 - Video 10/10
328.78 MB 4980 1011 1 day 8 hours
[i] Mr.Robot.S03E01.720p.HDTV.x264-AVS [rarbg] 760.82 MB 4147 874 5 days 4 days
[i] Lucifer.S03E03.HDTV.x264-LOL[eztv].mkv 256.91 MB 3877 737 1 day 8 hours
[i] Supernatural.S13E01.HDTV.x264-LOL[eztv] 261.41 MB 3600 851 4 days 3 days
[i] Greys.Anatomy.S14E04.HDTV.x264-SVA [rarbg] 238.82 MB 3519 838 4 days 3 days
[i] The.Big.Bang.Theory.S11E04.HDTV.x264-LOL[eztv].mkv 135.14 MB 3337 1889 7 hours 5 hours
[i] Greys.Anatomy.S14E04.HDTV.x264-SVA[eztv] 238.66 MB 2931 698 4 days 3 days
[i] Modern.Family.S09E03.HDTV.x264-SVA[eztv].mkv 172.79 MB 2621 747 5 days 4 days
[i] Star.Trek.Discovery.S01E05.iNTERNAL.720p.WEB.x264-BAMBOOZLE[eztv].mkv 968.15 MB 2390 579 1 day 6 hours