Devil May Cry 1x10-12 H264 ita jpn sub ita iCV-MIRCrew

DOWNLOAD TORRENT DOWNLOAD DOWNLOAD ANONYMOUS

Posted by robbyrs3 •236 on July 26, 2017 in Anime » Cartoons , verified torrent

Size: 4.54 GB , Seeds: 5 , Peers: 10 ( Updated August 9, 2017 - Refresh )

* Download via Magnet Link , * To download files you need a Bittorrent Client , * How to download torrents from Bit Torrent Scene?

Scrape History ( seeds + peers )

Internal Files

Devil May Cry 1x10-12.H264.ita.jpn.sub.ita.iCV-MIRCrew
Devil May Cry - Mission 01 Devil May Cry_1.mkv   389.03 MB
Devil May Cry - Mission 01 Devil May Cry_track4_ita.srt   24.38 KB
Devil May Cry - Mission 02 Highway star_1_1.mkv   385.38 MB
Devil May Cry - Mission 02 Highway star_track4_ita.srt   17.67 KB
Devil May Cry - Mission 03 Not love_1.mkv   389.11 MB
Devil May Cry - Mission 03 Not love_track4_ita.srt   22.92 KB
Devil May Cry - Mission 04 Rolling thunder_1.mkv   386.61 MB
Devil May Cry - Mission 04 Rolling thunder_track4_ita.srt   21.76 KB
Devil May Cry - Mission 05 In private_1.mkv   387.97 MB
Devil May Cry - Mission 05 In private_track4_ita.srt   14.6 KB
Devil May Cry - Mission 06 Rock queen_1.mkv   384.76 MB
Devil May Cry - Mission 06 Rock queen_track4_ita.srt   15.75 KB
Devil May Cry - Mission 07 Wishes come true_1.mkv   387 MB
Devil May Cry - Mission 07 Wishes come true_track4_ita.srt   21.71 KB
Devil May Cry - Mission 08 Once upon a time_1.mkv   384.41 MB
Devil May Cry - Mission 08 Once upon a time_track4_ita.srt   21.12 KB
Devil May Cry - Mission 09 Death poker_1.mkv   388.2 MB
Devil May Cry - Mission 09 Death poker_track4_ita.srt   24.34 KB
Devil May Cry - Mission 10 The last promise_1.mkv   385.74 MB
Devil May Cry - Mission 10 The last promise_track4_ita.srt   17.53 KB
Devil May Cry - Mission 11 Showtime!_1.mkv   386.35 MB
Devil May Cry - Mission 11 Showtime!_track4_ita.srt   21.93 KB
Devil May Cry - Mission 12 Stylish!_1.mkv   393.29 MB
Devil May Cry - Mission 12 Stylish!_track4_ita.srt   18.18 KB
www.icv-crew.org.txt   78 Byte

Hash Code

0df4850278adede12e19cd3f037a806e951f3be3

Description

Devil May Cry: Mission 1x01-12 (2007).H264.Italian.jpn.Ac3.5.1.sub.ita.iCV-MIRCrew



SCREENSHOT
NO FOUND ONLY ORIGINAL RELEASE

SCREENSHOT

My release is always in double track audio italian and Original audio
for select it use VLC or dvd player home
not use wmp

Devil May Cry: Mission 1-12 (2007)

PRESENTI ANCHE i SOTTOTITOLI

ESTERNI IN SRT (ita)


Episodi:

1 Mission: 01 Devil May Cry
2 Mission: 02 Highway star
3 Mission: 03 Not love
4 Mission: 04 Rolling thunder
5 Mission: 05 In private
6 Mission: 06 Rock queen
7 Mission: 07 Wishes come true
8 Mission: 08 Once upon a time
9 Mission: 09 Death poker
10 Mission: 10 The last promise
11 Mission: 11 Showtime!
12 Mission: 12 Stylish!

SCREENSHOT

SCREENSHOT

SCREENSHOT

Genere azione, horror
Serie TV anime
Regia Shin Itagaki
Char. design Hisashi Abe
Dir. artistica Katsushi Aoki
Musiche rungram
Studio Madhouse
Rete WOWOW
1ª TV 14 giugno – 6 settembre 2007
Episodi 12 (completa)
Durata 30 min
Rete it. Man-ga, YouTube (canale Yamato Animation)
1ª TV it. 3 luglio – 19 settembre 2010
Episodi it. 12 (completa)
Durata ep. it. 30 min

SCREENSHOT

Doppiatori:

Dante Toshiyuki Morikawa Alessandro Maria D'Errico
Patty Rowell Misato Fukuen Loretta Di Pisa
Morrison Akio Ohtsuka Marco Balzarotti
Lady Fumiko Orikasa Beatrice Caggiula
Trish Atsuko Tanaka Donatella Fanfani
Sid Nachi Nozawa Daniele Demma

SCREENSHOT

Dante è figlio del demone Sparda e di un'umana, e per questo è un mezzo demone, anche se il suo aspetto risulta del tutto umano. Sebbene questa sembri una contraddizione, l'obiettivo di Dante è proprio quello di sconfiggere ed uccidere i demoni. Cronologicamente la serie si svolge fra Devil May Cry e Devil May Cry 4...........

SCREENSHOT

Dante, a superhuman son of a powerful murdered demon and human woman is a master of gun and sword who runs an "odd-job" agency. Despite financial troubles, he never loses his cool since work always comes calling sooner or later.

SCREENSHOT

SCREENSHOT
SCREENSHOT
SCREENSHOT


SCREENSHOT


[spoiler]
General
Unique ID : 18284681449283860524662196108903316965 (0xDC18065C1939B072BD6DC2CE803FDE5)
Complete name : Devil May Cry - Mission 02 Highway star.mkv
Format : Matroska
Format version : Version 2
File size : 385 MiB
Duration : 24mn 47s
Overall bit rate : 2 173 Kbps
Movie name : www.icv-crew.org
Encoded date : UTC 2017-07-19 13:49:59
Writing application : Lavf54.63.100
Writing library : Lavf54.63.100
COPYRIGHT : robbyrs
DATE : 2017

Video
ID : 1
Format : AVC
Format/Info : Advanced Video Codec
Format profile : Main@L4.1
Format settings, CABAC : Yes
Format settings, ReFrames : 2 frames
Codec ID : V_MPEG4/ISO/AVC
Duration : 24mn 47s
Bit rate : 1 290 Kbps
Width : 720 pixels
Height : 404 pixels
Display aspect ratio : 16:9
Frame rate mode : Variable
Frame rate : 23.976 fps
Color space : YUV
Chroma subsampling : 4:2:0
Bit depth : 8 bits
Scan type : Progressive
Bits/(Pixel*Frame) : 0.185
Stream size : 219 MiB (57%)
Title : Devil May Cry - Mission: 02 Highway star
Writing library : x264 core 130 r2273
Encoding settings : cabac=1 / ref=2 / deblock=1:0:0 / analyse=0x1:0x131 / me=hex / subme=7 / psy=1 / psy_rd=1.00:0.00 / mixed_ref=0 / me_range=16 / chroma_me=1 / trellis=1 / 8x8dct=0 / cqm=0 / deadzone=21,11 / fast_pskip=1 / chroma_qp_offset=-2 / threads=12 / lookahead_threads=2 / sliced_threads=0 / nr=0 / decimate=1 / interlaced=0 / bluray_compat=0 / constrained_intra=0 / bframes=3 / b_pyramid=0 / b_adapt=1 / b_bias=0 / direct=3 / weightb=1 / open_gop=0 / weightp=2 / keyint=230 / keyint_min=23 / scenecut=40 / intra_refresh=0 / rc_lookahead=40 / rc=abr / mbtree=1 / bitrate=1290 / ratetol=1.0 / qcomp=0.60 / qpmin=10 / qpmax=69 / qpstep=4 / vbv_maxrate=24000 / vbv_bufsize=24000 / nal_hrd=none / ip_ratio=1.40 / aq=1:1.00
Language : Italian
Default : Yes
Forced : No
DURATION : 00:24:47.820000000
NUMBER_OF_FRAMES : 35672
NUMBER_OF_BYTES : 1299204093
_STATISTICS_WRITING_APP : mkvmerge v9.1.0 ('Little Earthquakes') 64bit
_STATISTICS_WRITING_DATE_UTC : 2016-06-09 15:49:42
_STATISTICS_TAGS : BPS DURATION NUMBER_OF_FRAMES NUMBER_OF_BYTES

Audio #1
ID : 2
Format : AC-3
Format/Info : Audio Coding 3
Mode extension : CM (complete main)
Codec ID : A_AC3
Duration : 24mn 47s
Bit rate mode : Constant
Bit rate : 448 Kbps
Channel(s) : 6 channels
Channel positions : Front: L C R, Side: L R, LFE
Sampling rate : 48.0 KHz
Bit depth : 16 bits
Compression mode : Lossy
Delay relative to video : 1mn 5s
Stream size : 79.5 MiB (21%)
Language : Italian
Default : Yes
Forced : No
DURATION : 00:24:47.840000000
NUMBER_OF_FRAMES : 46495
NUMBER_OF_BYTES : 83319040
_STATISTICS_WRITING_APP : mkvmerge v9.1.0 ('Little Earthquakes') 64bit
_STATISTICS_WRITING_DATE_UTC : 2016-06-09 15:49:42
_STATISTICS_TAGS : BPS DURATION NUMBER_OF_FRAMES NUMBER_OF_BYTES

Audio #2
ID : 3
Format : AC-3
Format/Info : Audio Coding 3
Mode extension : CM (complete main)
Codec ID : A_AC3
Duration : 24mn 47s
Bit rate mode : Constant
Bit rate : 448 Kbps
Channel(s) : 6 channels
Channel positions : Front: L C R, Side: L R, LFE
Sampling rate : 48.0 KHz
Bit depth : 16 bits
Compression mode : Lossy
Delay relative to video : 1mn 5s
Stream size : 79.5 MiB (21%)
Language : Japanese
Default : No
Forced : No
DURATION : 00:24:47.840000000
NUMBER_OF_FRAMES : 46495
NUMBER_OF_BYTES : 83319040
_STATISTICS_WRITING_APP : mkvmerge v9.1.0 ('Little Earthquakes') 64bit
_STATISTICS_WRITING_DATE_UTC : 2016-06-09 15:49:42
_STATISTICS_TAGS : BPS DURATION NUMBER_OF_FRAMES NUMBER_OF_BYTES

Text
ID : 4
Format : ASS
Codec ID : S_TEXT/ASS
Codec ID/Info : Advanced Sub Station Alpha
Compression mode : Lossless
Title : Italiano (Dialoghi)
Language : Italian
Default : No
Forced : No
DURATION : 00:23:56.060000000
NUMBER_OF_FRAMES : 214
NUMBER_OF_BYTES : 9639
_STATISTICS_WRITING_APP : mkvmerge v9.1.0 ('Little Earthquakes') 64bit
_STATISTICS_WRITING_DATE_UTC : 2016-06-09 15:49:42
_STATISTICS_TAGS : BPS DURATION NUMBER_OF_FRAMES NUMBER_OF_BYTES



[/spoiler]

Trackers

Refresh Leechers : Updated August 9, 2017

1. udp://tracker.coppersurfer.tk:6969/announce

2. udp://tracker.opentrackr.org:1337/announce

3. udp://tracker.leechers-paradise.org:6969/announce

4. udp://9.rarbg.com:2710/announce

5. udp://9.rarbg.to:2710/announce

6. udp://9.rarbg.me:2710/announce

7. udp://glotorrents.pw:6969/announce

8. udp://tracker.openbittorrent.com:80/announce

9. udp://tracker.pubt.net:2710/announce

Comments

You must log in to add a comment.

Embed Code

Sharing Widget

Top Anime ( auto generated report )

FILENAME SIZE SEEDS PEERS ADDED UPD
[i] Lupin III - L'elusività della nebbia (2007).H264.Italian.jpn.Ac3.5.1.sub.ita.iCV-MIRCrew 1.32 GB 6 3 5 days 4 days
[i] Lupin III - Un diamante per sempre (2003).H264.Italian.jpn.Ac3.sub.ita.iCV-MIRCrew 1.03 GB 4 1 5 days 4 days