Charmed S02 480i DVD REMUX MPEG-2 DD2 0

DOWNLOAD TORRENT DOWNLOAD DOWNLOAD ANONYMOUS

Posted on May 20, 2017 in Series » Misc

Size: 35.76 GB , Seeds: 1 , Peers: 4 ( Updated May 20, 2017 - Refresh )

* Download via Magnet Link , * To download files you need a Bittorrent Client , * How to download torrents from Bit Torrent Scene?

Loading...

Scrape History ( seeds + peers )

Internal Files

Charmed.S02.480i.DVD.REMUX.MPEG-2.DD2.0
Charmed.S02E01.Witch.Trial.480i.DVD.REMUX.MPEG-2.DD2.0.mkv   1.62 GB
Charmed.S02E02.Morality.Bites.480i.DVD.REMUX.MPEG-2.DD2.0.mkv   1.66 GB
Charmed.S02E03.The.Painted.World.480i.DVD.REMUX.MPEG-2.DD2.0.mkv   1.63 GB
Charmed.S02E04.The.Devils.Music.480i.DVD.REMUX.MPEG-2.DD2.0.mkv   1.51 GB
Charmed.S02E05.Shes.a.Man.Baby.a.Man.480i.DVD.REMUX.MPEG-2.DD2.0.mkv   1.63 GB
Charmed.S02E06.That.Old.Black.Magic.480i.DVD.REMUX.MPEG-2.DD2.0.mkv   1.64 GB
Charmed.S02E07.Theyre.Everywhere.480i.DVD.REMUX.MPEG-2.DD2.0.mkv   1.59 GB
Charmed.S02E08.P3.H2O.480i.DVD.REMUX.MPEG-2.DD2.0.mkv   1.66 GB
Charmed.S02E09.Ms.Hellfire.480i.DVD.REMUX.MPEG-2.DD2.0.mkv   1.65 GB
Charmed.S02E10.Heartbreak.City.480i.DVD.REMUX.MPEG-2.DD2.0.mkv   1.59 GB
Charmed.S02E11.Reckless.Abandon.480i.DVD.REMUX.MPEG-2.DD2.0.mkv   1.64 GB
Charmed.S02E12.Awakened.480i.DVD.REMUX.MPEG-2.DD2.0.mkv   1.62 GB
Charmed.S02E13.Animal.Pragmatism.480i.DVD.REMUX.MPEG-2.DD2.0.mkv   1.65 GB
Charmed.S02E14.Pardon.My.Past.480i.DVD.REMUX.MPEG-2.DD2.0.mkv   1.66 GB
Charmed.S02E15.Give.Me.a.Sign.480i.DVD.REMUX.MPEG-2.DD2.0.mkv   1.61 GB
Charmed.S02E16.Murphys.Luck.480i.DVD.REMUX.MPEG-2.DD2.0.mkv   1.62 GB
Charmed.S02E17.How.to.Make.a.Quilt.Out.of.Americans.480i.DVD.REMUX.MPEG-2.DD2.0.mkv   1.59 GB
Charmed.S02E18.Chick.Flick.480i.DVD.REMUX.MPEG-2.DD2.0.mkv   1.65 GB
Charmed.S02E19.Ex.Libris.480i.DVD.REMUX.MPEG-2.DD2.0.mkv   1.67 GB
Charmed.S02E20.Astral.Monkey.480i.DVD.REMUX.MPEG-2.DD2.0.mkv   1.63 GB
Charmed.S02E21.Apocalypse.Not.480i.DVD.REMUX.MPEG-2.DD2.0.mkv   1.6 GB
Charmed.S02E22.Be.Careful.What.You.Witch.For.480i.DVD.REMUX.MPEG-2.DD2.0.mkv   1.66 GB

Hash Code

29cb29ed6522206d43a6ae2e52b9c4c946e77f85

Description

General

Unique ID : 98622928433957443223574457935118831439 (0x4A3215C9996E5409671141451D258F4F)

Complete name : Charmed.S02E01.Witch.Trial.480i.DVD.REMUX.MPEG-2.DD2.0.mkv

Format : Matroska

Format version : Version 4 / Version 2

File size : 1.62 GiB

Duration : 43mn 7s

Overall bit rate mode : Variable

Overall bit rate : 5 373 Kbps

Encoded date : UTC 2017-04-12 22:29:23

Writing application : mkvmerge v10.0.0 ('To Drown In You') 64bit

Writing library : libebml v1.3.4 + libmatroska v1.4.5

DURATION : 00:42:04.490000000

NUMBER_OF_FRAMES : 1053

NUMBER_OF_BYTES : 74644

_STATISTICS_WRITING_APP : mkvmerge v10.0.0 ('To Drown In You') 64bit

_STATISTICS_WRITING_DATE_UTC : 2017-04-12 22:29:23

_STATISTICS_TAGS : BPS DURATION NUMBER_OF_FRAMES NUMBER_OF_BYTES


Video

ID : 1

Format : MPEG Video

Format version : Version 2

Format profile : [email protected]/* */

Format settings, BVOP : No

Format settings, Matrix : Custom

Format settings, picture structure : Frame

Codec ID : V_MPEG2

Codec ID/Info : MPEG 1 or 2 Video

Duration : 43mn 7s

Bit rate mode : Variable

Bit rate : 5 074 Kbps

Maximum bit rate : 9 800 Kbps

Width : 720 pixels

Height : 480 pixels

Display aspect ratio : 4:3

Frame rate mode : Constant

Frame rate : 29.970 fps

Standard : NTSC

Color space : YUV

Chroma subsampling : 4:2:0

Bit depth : 8 bits

Scan type : Interlaced

Scan order : Top Field First

Compression mode : Lossy

Bits/(Pixel*Frame) : 0.490

Time code of first frame : 00:00:00:00

Time code source : Group of pictures header

Stream size : 1.53 GiB (94%)

Title : MPEG-2 Video / 5178 kbps / 480i / 29.970 fps / 4:3

Language : English

Default : Yes

Forced : No

DURATION : 00:43:07.985000000

NUMBER_OF_FRAMES : 77562

NUMBER_OF_BYTES : 1675028594

_STATISTICS_WRITING_APP : mkvmerge v10.0.0 ('To Drown In You') 64bit

_STATISTICS_WRITING_DATE_UTC : 2017-04-12 22:29:23

_STATISTICS_TAGS : BPS DURATION NUMBER_OF_FRAMES NUMBER_OF_BYTES


Audio

ID : 2

Format : AC-3

Format/Info : Audio Coding 3

Mode extension : CM (complete main)

Format settings, Endianness : Big

Codec ID : A_AC3

Duration : 43mn 7s

Bit rate mode : Constant

Bit rate : 192 Kbps

Channel(s) : 2 channels

Channel positions : Front: L R

Sampling rate : 48.0 KHz

Bit depth : 16 bits

Compression mode : Lossy

Stream size : 59.2 MiB (4%)

Title : Dolby Digital Audio / 2.0 / 48 kHz / 192 kbps

Language : English

Default : Yes

Forced : No

DURATION : 00:43:07.776000000

NUMBER_OF_FRAMES : 80868

NUMBER_OF_BYTES : 62106624

_STATISTICS_WRITING_APP : mkvmerge v10.0.0 ('To Drown In You') 64bit

_STATISTICS_WRITING_DATE_UTC : 2017-04-12 22:29:23

_STATISTICS_TAGS : BPS DURATION NUMBER_OF_FRAMES NUMBER_OF_BYTES


Text

ID : 3

Format : ASS

Codec ID : S_TEXT/ASS

Codec ID/Info : Advanced Sub Station Alpha

Compression mode : Lossless

Title : CC

Language : English

Default : No

Forced : No


Menu

00:00:00.000 : en:Chapter 01

00:04:57.030 : en:Chapter 02

00:16:18.978 : en:Chapter 03

00:25:14.980 : en:Chapter 04

00:34:54.025 : en:Chapter 05

00:42:28.012 : en:Chapter 06

Torrent location

https://www.1337x.to/torrent/2219738/Charmed-S02-480i-DVD-REMUX-MPEG-2-DD2-0/

Trackers

Refresh Leechers : Updated May 20, 2017

1. http://explodie.org:6969/announce

2. http://tracker.tfile.me/announce

3. http://bigfoot1942.sektori.org:6969/announce

4. http://tracker2.wasabii.com.tw:6969/announce

5. http://tracker.mg64.net:6881/announce

6. http://bt.artvid.ru:6969/announce

7. http://tracker1.wasabii.com.tw:6969/announce

8. http://open.acgtracker.com:1096/announce

9. http://tracker.opentrackr.org/announce

10. http://mvgroup.org:2710/announce

11. udp://mgtracker.org:6969/announce

12. udp://asnet.pw:2710/announce

13. udp://tracker.mgtracker.org:2710/announce

14. udp://tracker4.piratux.com:6969/announce

15. udp://tracker.trackerfix.com:80/announce

16. udp://tracker.pomf.se:80/announce

17. udp://torrent.gresille.org:80/announce

18. udp://p4p.arenabg.com:1337

19. udp://ipv4.tracker.harry.lu:80/announce

20. udp://inferno.demonoid.ooo:3389/announce

21. udp://tracker.blackunicorn.xyz:6969/announce

22. udp://tracker.internetwarriors.net:1337/announce

23. udp://tracker.openbittorrent.com:80/announce

24. udp://eddie4.nl:6969/announce

25. udp://tracker.leechers-paradise.org:6969/announce

26. udp://tracker.opentrackr.org:1337/announce

27. udp://tracker.zer0day.to:1337/announce

28. udp://p4p.arenabg.ch:1337/announce

29. udp://tracker.coppersurfer.tk:6969/announce

30. udp://9.rarbg.to:2710/announce

31. udp://9.rarbg.com:2710/announce

32. udp://9.rarbg.me:2710/announce

33. udp://open.demonii.com:1337

34. udp://glotorrents.pw:6969/announce

35. udp://tracker.coppersurfer.tk:6969/announce

Comments

You must log in to add a comment.

Embed Code

Sharing Widget

Top Series ( auto generated report )

FILENAME SIZE SEEDS PEERS ADDED UPD
[i] American.Gods.S01E04.WEBRip.X264-DEFLATE[ettv] 480.5 MB 6133 2074 2 days 1 day
[i] Arrow.S05E22.HDTV.x264-SVA[eztv].mkv 305.41 MB 2482 601 5 days 2 hours
[i] Prison.Break.S05E07.HDTV.x264-KILLERS[ettv] 225.9 MB 4590 299 6 days 16 hours
[i] Greys.Anatomy.S13E24.HDTV.x264-KILLERS[ettv] 298.5 MB 3841 550 4 days 3 days
[i] Greys.Anatomy.S13E24.HDTV.x264-KILLERS[eztv].mkv 297.54 MB 3492 845 4 days 3 days
[i] Lucifer.S02E17.HDTV.x264-KILLERS[eztv].mkv 324.29 MB 3428 596 1 day 18 hours
[i] The.Blacklist.S04E22.HDTV.x264-KILLERS[eztv].mkv 228.41 MB 3295 504 4 days 3 days
[i] The.Flash.2014.S03E22.WEB-DL.x264-FUM[ettv] 260.5 MB 3192 497 6 days 9 hours
[i] Blindspot.S02E22.HDTV.x264-SVA[eztv].mkv 319.16 MB 3172 666 5 days 4 days
[i] Silicon.Valley.S04E05.HDTV.x264-SVA[ettv] 140.68 MB 3053 455 1 day 16 hours