Beauty and the Beast 2017 BRRip x264 AAC-SSN.[PRiME]

DOWNLOAD TORRENT DOWNLOAD DOWNLOAD ANONYMOUS

Posted on May 19, 2017 in Movies » Misc , verified torrent

Size: 1.62 GB , Seeds: 8 , Peers: 8 ( Updated May 20, 2017 - Refresh )

* Download via Magnet Link , * To download files you need a Bittorrent Client , * How to download torrents from Bit Torrent Scene?

Loading...

Scrape History ( seeds + peers )

Internal Files

Beauty and the Beast 2017 BRRip x264 AAC-SSN.[PRiME]
Beauty and the Beast 2017 BRRip x264 AAC-SSN[PRiME].mkv   1.62 GB
Please Support!! Read More!!!.txt   334 Byte

Hash Code

836b57d68dbe84705461722510b71464637fa4f6

Description


Beauty and the Beast 2017 BRRip x264 AAC-SSN.[PRiME]

ImDb: http://www.imdb.com/title/tt2771200

SCREENSHOT

Complete name : Beauty and the Beast 2017 BRRip x264 AAC-SSN[PRiME].mkv
Format : Matroska
Format version : Version 4 / Version 2
File size : 1.62 GiB
Duration : 2 h 9 min
Overall bit rate : 1 790 kb/s
Encoded date : UTC 2017-05-19 10:20:59
Writing application : mkvmerge v9.4.2 ('So High') 64bit
Writing library : libebml v1.3.4 + libmatroska v1.4.5

Video
ID : 1
Format : AVC
Format/Info : Advanced Video Codec
Format profile : [email protected]/* */
Format settings, CABAC : Yes
Format settings, ReFrames : 5 frames
Codec ID : V_MPEG4/ISO/AVC
Duration : 2 h 9 min
Bit rate : 1 457 kb/s
Width : 900 pixels
Height : 376 pixels
Display aspect ratio : 2.40:1
Frame rate mode : Constant
Frame rate : 23.976 (24000/1001) FPS
Color space : YUV
Chroma subsampling : 4:2:0
Bit depth : 8 bits
Scan type : Progressive
Bits/(Pixel*Frame) : 0.180
Stream size : 1.32 GiB (81%)
Writing library : x264 core 148 r2744 b97ae06
Encoding settings : cabac=1 / ref=5 / deblock=1:0:0 / analyse=0x3:0x112 / me=dia / subme=1 / psy=0 / mixed_ref=1 / me_range=16 / chroma_me=1 / trellis=0 / 8x8dct=1 / cqm=0 / deadzone=22,11 / fast_pskip=1 / chroma_qp_offset=1 / threads=6 / lookahead_threads=2 / sliced_threads=0 / nr=0 / decimate=1 / interlaced=0 / bluray_compat=0 / constrained_intra=0 / bframes=10 / b_pyramid=2 / b_adapt=2 / b_bias=23 / direct=3 / weightb=1 / open_gop=1 / weightp=2 / keyint=250 / keyint_min=1 / scenecut=40 / intra_refresh=0 / rc_lookahead=100 / rc=2pass / mbtree=1 / bitrate=1457 / ratetol=3.0 / qcomp=0.80 / qpmin=10 / qpmax=40 / qpstep=3 / cplxblur=20.0 / qblur=0.5 / vbv_maxrate=50000 / vbv_bufsize=50000 / nal_hrd=none / filler=0 / ip_ratio=1.30 / aq=1:1.00
Language : English
Default : Yes
Forced : No

Audio
ID : 2
Format : AAC
Format/Info : Advanced Audio Codec
Format profile : LC
Codec ID : A_AAC
Duration : 2 h 9 min
Bit rate : 331 kb/s
Channel(s) : 6 channels
Channel positions : Front: L C R, Side: L R, LFE
Sampling rate : 32.0 kHz
Frame rate : 31.250 FPS (1024 spf)
Compression mode : Lossy
Stream size : 306 MiB (18%)
Language : English
Default : Yes
Forced : No

SCREENSHOT

Click Image To View Full Size

SCREENSHOT
Click To View Screenshot
Click To View Screenshot
Click To View Screenshot

Torrent location

https://www.1337x.to/torrent/2218873/Beauty-and-the-Beast-2017-BRRip-x264-AAC-SSN-PRiME/

Trackers

Refresh Leechers : Updated May 20, 2017

1. http://explodie.org:6969/announce

2. http://tracker.tfile.me/announce

3. http://bigfoot1942.sektori.org:6969/announce

4. http://tracker2.wasabii.com.tw:6969/announce

5. http://tracker.mg64.net:6881/announce

6. http://bt.artvid.ru:6969/announce

7. http://tracker1.wasabii.com.tw:6969/announce

8. http://open.acgtracker.com:1096/announce

9. http://tracker.opentrackr.org/announce

10. http://mvgroup.org:2710/announce

11. udp://mgtracker.org:6969/announce

12. udp://asnet.pw:2710/announce

13. udp://tracker.mgtracker.org:2710/announce

14. udp://tracker4.piratux.com:6969/announce

15. udp://tracker.trackerfix.com:80/announce

16. udp://tracker.pomf.se:80/announce

17. udp://torrent.gresille.org:80/announce

18. udp://p4p.arenabg.com:1337

19. udp://ipv4.tracker.harry.lu:80/announce

20. udp://inferno.demonoid.ooo:3389/announce

21. udp://tracker.blackunicorn.xyz:6969/announce

22. udp://tracker.internetwarriors.net:1337/announce

23. udp://tracker.openbittorrent.com:80/announce

24. udp://eddie4.nl:6969/announce

25. udp://tracker.leechers-paradise.org:6969/announce

26. udp://tracker.opentrackr.org:1337/announce

27. udp://tracker.zer0day.to:1337/announce

28. udp://p4p.arenabg.ch:1337/announce

29. udp://tracker.coppersurfer.tk:6969/announce

30. udp://9.rarbg.to:2710/announce

31. udp://9.rarbg.com:2710/announce

32. udp://9.rarbg.me:2710/announce

33. udp://open.demonii.com:1337

34. udp://glotorrents.pw:6969/announce

35. udp://eddie4.nl:6969/announce

36. udp://explodie.org:6969/announce

37. udp://9.rarbg.me:2710/announce

38. udp://9.rarbg.to:2710/announce

39. udp://9.rarbg.com:2710/announce

40. udp://p4p.arenabg.com:1337/announce

41. udp://p4p.arenabg.ch:1337/announce

42. udp://ipv4.tracker.harry.lu:80/announce

43. udp://tracker.zer0day.to:1337/announce

44. udp://tracker.opentrackr.org:1337/announce

45. udp://tracker.leechers-paradise.org:6969/announce

46. udp://tracker.coppersurfer.tk:6969/announce

47. udp://tracker.ilibr.org:80/announce

48. udp://tracker.ilibr.org:6969/announce

Comments

You must log in to add a comment.

Embed Code

Sharing Widget

Related torrents

FILENAME SIZE SEEDS PEERS ADDED UPD
[i]
[i]
Beauty and the Beast (2017) [1080p] [YTS AG]
1.96 GB 12256 5690 5 days 9 hours
[i] Beauty and the Beast (2017) [720p] [YTS AG] 947.05 MB 9223 4734 5 days 9 hours
[i] Beauty.And.The.Beast.2017.1080p.HDRip.X264.AC3-EVO[EtHD] 3.63 GB 2210 349 1 week 9 hours
[i] Beauty.And.The.Beast.2017.720p.HDRip.999MB.MkvCage.mkv 1002.3 MB 896 275 1 week 1 day
[i] Beauty.and.the.Beast.S04E13.PROPER.HDTV.x264-KILLERS[ettv] 300.5 MB 645 135 8 months 8 months
[i] Beauty and the Beast (2017) 720p HDTS 950MB - MkvCage 953.3 MB 538 105 2 months 3 weeks
[i] Beauty.and.The.Beast.2017.720p.HDTS.x264.ShAaNiG.mkv 1.1 GB 441 88 2 months 3 weeks
[i] Beauty.And.The.Beast.2017.HC.HDRip.XViD.AC3-ETRG.torrent 1.39 GB 410 120 1 week 1 day
[i] Beauty and the Beast (2017) 720p BluRay x264 [Dual-Audio][Hindi (Cleaned) - English] ESubs - Downloadhub
posted by downloadhub in Movies - Family
1.12 GB 396 482 3 days 8 hours
[i] Beauty And The Beast 2017 720p English BluRay x264= GOPI SAHI
posted by gopisahi in Movies - Adventure
942.72 MB 243 161 4 days 3 days

Top Movies ( auto generated report )

FILENAME SIZE SEEDS PEERS ADDED UPD
[i] Logan (2017) [1080p] [YTS AG] 2.09 GB 13878 7730 2 days 10 hours
[i] Beauty and the Beast (2017) [1080p] [YTS AG] 1.96 GB 12256 5690 5 days 9 hours
[i] Logan (2017) [720p] [YTS AG] 1014.33 MB 11389 7827 2 days 8 hours
[i] Beauty and the Beast (2017) [720p] [YTS AG] 947.05 MB 9223 4734 5 days 9 hours
[i] John Wick Chapter 2 (2017) 720p WEB-DL 950MB - MkvCage.torrent 953.3 MB 5497 2500 1 day 5 hours
[i] Free.Fire.2016.1080p.WEB-DL.DD5.1.H264-FGT 3.11 GB 3018 1703 1 day 20 hours
[i] John.Wick.Chapter.2.2017.WEB-DL.x264-FGT 1.05 GB 3153 1563 1 day 7 hours
[i] John Wick Chapter 2 2017 HDRip XVid Line-NoGrp 1.3 GB 2856 1272 1 day 20 hours
[i] Beauty.And.The.Beast.2017.1080p.HDRip.X264.AC3-EVO[EtHD] 3.63 GB 2210 349 1 week 9 hours
[i] John.Wick.Chapter.2.2017.720p.WEB-DL.XviD.AC3-FGT 3.58 GB 2571 2678 1 day 7 hours