18+ Knucklebones 2016 UNCENSORED Movies BRRip XviD AAC New Source with Sample ☻rDX☻

DOWNLOAD TORRENT DOWNLOAD DOWNLOAD ANONYMOUS

Posted on May 19, 2017 in Movies » Misc

Size: 706.3 MB , Seeds: 0 , Peers: 181 ( Updated May 20, 2017 - Refresh )

* Download via Magnet Link , * To download files you need a Bittorrent Client , * How to download torrents from Bit Torrent Scene?

Loading...

Scrape History ( seeds + peers )

Internal Files

18+ Knucklebones 2016 UNCENSORED Movies BRRip XviD AAC New Source with Sample ☻rDX☻
Sample ~ 18+ Knucklebones 2016 UNCENSORED Movies BRRip XviD AAC New Source ☻rDX☻.mkv   7.01 MB
18+ Knucklebones 2016 UNCENSORED Movies BRRip XviD AAC New Source ☻rDX☻.mkv   698 MB

Hash Code

243df3f250d6dbbaa7819c177f175a148ec3321c

Description

18+ Knucklebones 2016 UNCENSORED Movies BRRip XviD AAC New Source with Sample ☻rDX☻

===============================================================================================


SCREEN SHOTS:


SCREENSHOT


or


http://postimage.co.nr/2017/5/insurance/1.html


File size : 698 MiB

Duration : 1 h 24 min

Overall bit rate mode : Constant

Overall bit rate : 1 154 kb/s

Movie name : 18+ Knucklebones 2016 UNCENSORED Movies BRRip XviD AAC New Source ☻rDX☻


Video

ID : 2

Format : AVC

Format/Info : Advanced Video Codec

Format profile : [email protected]/* */

Format settings, CABAC : Yes

Format settings, ReFrames : 2 frames

Format settings, GOP : M=1, N=12

Codec ID : V_MPEG4/ISO/AVC

Duration : 1 h 24 min

Bit rate mode : Constant

Bit rate : 707 kb/s

Width : 720 pixels

Height : 400 pixels

Display aspect ratio : 16:9

Frame rate mode : Constant

Frame rate : 23.976 (24000/1001) FPS

Color space : YUV

Chroma subsampling : 4:2:0

Bit depth : 8 bits

Scan type : Progressive

Bits/(Pixel*Frame) : 0.102

Stream size : 413 MiB (59%)

Title : ☻rDX☻

Default : Yes

Forced : No


Audio

ID : 1

Format : AC-3

Format/Info : Audio Coding 3

Mode extension : CM (complete main)

Format settings, Endianness : Big

Codec ID : A_AC3

Duration : 1 h 24 min

Bit rate mode : Constant

Bit rate : 448 kb/s

Channel(s) : 6 channels

Channel positions : Front: L C R, Side: L R, LFE

Sampling rate : 48.0 kHz

Frame rate : 31.250 FPS (1536 spf)

Bit depth : 16 bits

Compression mode : Lossy

Stream size : 271 MiB (39%)

Title : ☻rDX☻

Default : Yes

Forced : No


SCREENSHOT


IMDB : http://www.imdb.com/title/tt3204254

Torrent location

https://www.1337x.to/torrent/2219464/18-Knucklebones-2016-UNCENSORED-Movies-BRRip-XviD-AAC-New-Source-with-Sample-rDX/

Trackers

Refresh Leechers : Updated May 20, 2017

1. http://explodie.org:6969/announce

2. http://tracker.tfile.me/announce

3. http://bigfoot1942.sektori.org:6969/announce

4. http://tracker2.wasabii.com.tw:6969/announce

5. http://tracker.mg64.net:6881/announce

6. http://bt.artvid.ru:6969/announce

7. http://tracker1.wasabii.com.tw:6969/announce

8. http://open.acgtracker.com:1096/announce

9. http://tracker.opentrackr.org/announce

10. http://mvgroup.org:2710/announce

11. udp://mgtracker.org:6969/announce

12. udp://asnet.pw:2710/announce

13. udp://tracker.mgtracker.org:2710/announce

14. udp://tracker4.piratux.com:6969/announce

15. udp://tracker.trackerfix.com:80/announce

16. udp://tracker.pomf.se:80/announce

17. udp://torrent.gresille.org:80/announce

18. udp://p4p.arenabg.com:1337

19. udp://ipv4.tracker.harry.lu:80/announce

20. udp://inferno.demonoid.ooo:3389/announce

21. udp://tracker.blackunicorn.xyz:6969/announce

22. udp://tracker.internetwarriors.net:1337/announce

23. udp://tracker.openbittorrent.com:80/announce

24. udp://eddie4.nl:6969/announce

25. udp://tracker.leechers-paradise.org:6969/announce

26. udp://tracker.opentrackr.org:1337/announce

27. udp://tracker.zer0day.to:1337/announce

28. udp://p4p.arenabg.ch:1337/announce

29. udp://tracker.coppersurfer.tk:6969/announce

30. udp://9.rarbg.to:2710/announce

31. udp://9.rarbg.com:2710/announce

32. udp://9.rarbg.me:2710/announce

33. udp://open.demonii.com:1337

34. udp://glotorrents.pw:6969/announce

35. udp://tracker.publicbt.com:80/announce

36. http://tracker.publicbt.com/announce

37. udp://coppersurfer.tk:6969/announce

38. udp://tracker.leechers-paradise.org:6969/announce

39. http://tracker.btcake.com/announce

40. http://tracker.aletorrenty.pl:2710/announce

41. http://mgtracker.org:2710/announce

42. udp://explodie.org:6969/announce

43. udp://tracker.pomf.se:80/announce

44. http://retracker.krs-ix.ru/announce

45. udp://glotorrents.pw:6969/announce

46. udp://tracker.coppersurfer.tk:6969/announce

Comments

You must log in to add a comment.

Embed Code

Sharing Widget

Top Movies ( auto generated report )

FILENAME SIZE SEEDS PEERS ADDED UPD
[i] Logan (2017) [1080p] [YTS AG] 2.09 GB 13878 7730 2 days 10 hours
[i] Beauty and the Beast (2017) [1080p] [YTS AG] 1.96 GB 12256 5690 5 days 9 hours
[i] Logan (2017) [720p] [YTS AG] 1014.33 MB 11389 7827 2 days 8 hours
[i] Beauty and the Beast (2017) [720p] [YTS AG] 947.05 MB 9223 4734 5 days 9 hours
[i] John Wick Chapter 2 (2017) 720p WEB-DL 950MB - MkvCage.torrent 953.3 MB 5497 2500 1 day 5 hours
[i] Free.Fire.2016.1080p.WEB-DL.DD5.1.H264-FGT 3.11 GB 3018 1703 1 day 20 hours
[i] John.Wick.Chapter.2.2017.WEB-DL.x264-FGT 1.05 GB 3153 1563 1 day 7 hours
[i] John Wick Chapter 2 2017 HDRip XVid Line-NoGrp 1.3 GB 2856 1272 1 day 20 hours
[i] Beauty.And.The.Beast.2017.1080p.HDRip.X264.AC3-EVO[EtHD] 3.63 GB 2210 349 1 week 9 hours
[i] John.Wick.Chapter.2.2017.720p.WEB-DL.XviD.AC3-FGT 3.58 GB 2571 2678 1 day 7 hours